高地战[中英字幕].The.Front.Line.2011.BluRay.1080p.x265.10bit-MiniHD 6.31GB

版主小s 18天前 118

✔资源类型:暂未分类   ✔电影年份:2011   ✔电影地区:韩国   ✔电影分类:剧情

◎译  名 高地战 / The Front Line / Battle of Highlands
◎片  名 ???
◎年  代 2011
◎产  地 韩国
◎类  别 剧情 / 战争
◎语  言 韩语
◎上映日期 2011-07-20(韩国)
◎IMDb链接 https://www.imdb.com/title/tt2007387/
◎豆瓣评分 8.5/10 (39188人评价)
◎豆瓣链接 https://movie.douban.com/subject/4328443/
◎片  长 133分钟
◎导  演 张勋 Hun Jang (id:1313442)
◎编  剧 朴尚渊 Sang-yeon Park (id:1021916)
◎演  员 申河均 Ha-kyun Shin (id:1140667)
       高修 Soo Go (id:1030091)
       金玉彬 Ok-bin Kim (id:1207155)
       高昌锡 Chang-Seok Ko (id:1314613)
       李帝勋 Je-hoon Lee (id:1316048)
       柳承龙 Seung-ryong Ryu (id:1316165)
       李大卫 David Lee (id:1326902)
       柳承秀 Seung-su Ryu (id:1024773)
       赵震雄 Cho Jin-woong (id:1322203)
       郑仁基 In-gi Jeong (id:1320459)
       徐贤宇 Seo Hyeon-woo (id:1379938)
       宋光元 Song Kwang-won (id:1380461)
       朴钟焕 Jong-hwan Park (id:1357058)
       张仁浩 Yin-ho Jang (id:1321874)
       宋哈林 ??? (id:1385939)
       Si-hoon Choi  Si-hoon Choi (id:1397857)
       金江日 Kang-il Kim (id:1395137)
       权爀种 Kwon Hyeok Jong (id:1467797)
       朴宰哲 Park Jae Chul (id:1467653)
       金庆一 Kyung-il Kim (id:1464733)
       白贤宇 Hyung-woo Baek (id:1448101)
       朴英徐 Yeong-seo Park (id:1458414)
       金泰允 Kim Tae Yoon (id:1456050)
       张领圭 Young-gyu Jang (id:1329974)
       金宇亨 Woo-hyung Kim (id:1288559)
       金尚范 Sang-bum Kim (id:1288546)
       柳星姬 Seong-hie Ryu (id:1307424)
       朴洪秀 Hong-soo Park (id:1472624)
       金石源 Suk-won Kim (id:1305145)

◎简  介
  1952年,在板门店谈判中,L高地的归属直接影响到停火线的划定,南北双方为了获得更有利的战果,围绕L高地展开了新一轮血腥的争夺。此时,在前线的韩方鳄鱼中队队长被自己人的手枪击毙,同时北方人民军军人的家信在暗中通过韩方邮路寄送,韩方怀疑高地前线出现内奸,派调查部门的姜恩彪中尉(申河均 饰)陪同新任队长前往鳄鱼中队。此时鳄鱼中队实际掌控在姜恩彪昔日战友金秀赫中尉(高修 饰)以及申日荣上尉手中,姜恩彪惊异的发现曾经书生气十足的金秀赫如今已变成强悍的战士,而表面上军纪涣散的鳄鱼中队在实战中则有着惊人的战斗力。姜恩彪随鳄鱼中队一起经历了拉锯式的高地争夺战,而他终于无意中发现了鳄鱼中队“通敌”的线索……

◎获奖情况 (共15项)
  第6届亚洲电影大奖 (2012)
  最佳男配角(提名)
   └──李帝勋 (id:1316048)
  最佳摄影(提名)
   └──金宇亨 (id:1288559)
  最佳美术指导(提名)
   └──柳星姬 (id:1307424)

  第48届韩国电影大钟奖 (2011)
  最佳影片
  最佳导演(提名)
   └──张勋 (id:1313442)
  最佳男配角(提名)
   └──柳承龙 (id:1316165)
  最佳新人男演员(提名)
   └──李帝勋 (id:1316048)
  最佳剧本(提名)
   └──朴尚渊 (id:1021916)
  最佳摄影
   └──金宇亨 (id:1288559)
  最佳剪辑(提名)
  最佳服装(提名)
  最佳音效(提名)
  最佳视觉效果(提名)
  最佳照明
  最佳企划

  1. ##### MediaInfo ######
  2. General
  3. Unique ID                                : 238638700817507081291621810238786080819 (0xB3882458C33C36B2B8C334421AD79033)
  4. Complete name                            : The.Front.Line.2011.BluRay.1080p.x265.10bit-MiniHD.mkv
  5. Format                                   : Matroska
  6. Format version                           : Version 4
  7. File size                                : 6.31 GiB
  8. Duration                                 : 2 h 13 min
  9. Overall bit rate                         : 6 758 kb/s
  10. Encoded date                             : UTC 2017-05-12 11:05:05
  11. Writing application                      : mkvmerge v11.0.0 ('Alive') 64bit
  12. Writing library                          : libebml v1.3.4 + libmatroska v1.4.5
  13. Video
  14. ID                                       : 1
  15. Format                                   : HEVC
  16. Format/Info                              : High Efficiency Video Coding
  17. Codec ID                                 : V_MPEGH/ISO/HEVC
  18. Duration                                 : 2 h 13 min
  19. Bit rate                                 : 5 984 kb/s
  20. Width                                    : 1 920 pixels
  21. Height                                   : 1 040 pixels
  22. Display aspect ratio                     : 1.85:1
  23. Frame rate mode                          : Constant
  24. Frame rate                               : 24.000 FPS
  25. Bits/(Pixel*Frame)                       : 0.125
  26. Stream size                              : 5.58 GiB (89%)
  27. Default                                  : Yes
  28. Forced                                   : No
  29. Audio
  30. ID                                       : 2
  31. Format                                   : AC-3
  32. Format/Info                              : Audio Coding 3
  33. Commercial name                          : Dolby Digital
  34. Codec ID                                 : A_AC3
  35. Duration                                 : 2 h 13 min
  36. Bit rate mode                            : Constant
  37. Bit rate                                 : 640 kb/s
  38. Channel(s)                               : 6 channels
  39. Channel layout                           : L R C LFE Ls Rs
  40. Sampling rate                            : 48.0 kHz
  41. Frame rate                               : 31.250 FPS (1536 SPF)
  42. Compression mode                         : Lossy
  43. Stream size                              : 612 MiB (9%)
  44. Language                                 : Korean
  45. Service kind                             : Complete Main
  46. Default                                  : Yes
  47. Forced                                   : No
  48. Text #1
  49. ID                                       : 3
  50. Format                                   : PGS
  51. Muxing mode                              : zlib
  52. Codec ID                                 : S_HDMV/PGS
  53. Codec ID/Info                            : Picture based subtitle format used on BDs/HD-DVDs
  54. Language                                 : Korean
  55. Default                                  : Yes
  56. Forced                                   : No
  57. Text #2
  58. ID                                       : 4
  59. Format                                   : PGS
  60. Muxing mode                              : zlib
  61. Codec ID                                 : S_HDMV/PGS
  62. Codec ID/Info                            : Picture based subtitle format used on BDs/HD-DVDs
  63. Language                                 : English
  64. Default                                  : No
  65. Forced                                   : No
  66. Text #3
  67. ID                                       : 5
  68. Format                                   : PGS
  69. Muxing mode                              : zlib
  70. Codec ID                                 : S_HDMV/PGS
  71. Codec ID/Info                            : Picture based subtitle format used on BDs/HD-DVDs
  72. Language                                 : Chinese
  73. Default                                  : No
  74. Forced                                   : No
  75. Text #4
  76. ID                                       : 6
  77. Format                                   : PGS
  78. Muxing mode                              : zlib
  79. Codec ID                                 : S_HDMV/PGS
  80. Codec ID/Info                            : Picture based subtitle format used on BDs/HD-DVDs
  81. Language                                 : Chinese
  82. Default                                  : No
  83. Forced                                   : No
  84. Menu
  85. 00:00:00.000                             : en:Chapter 01
  86. 00:08:10.708                             : en:Chapter 02
  87. 00:11:08.666                             : en:Chapter 03
  88. 00:17:19.166                             : en:Chapter 04
  89. 00:28:27.000                             : en:Chapter 05
  90. 00:37:34.958                             : en:Chapter 06
  91. 00:46:47.208                             : en:Chapter 07
  92. 00:52:32.166                             : en:Chapter 08
  93. 01:00:46.875                             : en:Chapter 09
  94. 01:07:12.458                             : en:Chapter 10
  95. 01:15:41.708                             : en:Chapter 11
  96. 01:18:44.291                             : en:Chapter 12
  97. 01:24:01.958                             : en:Chapter 13
  98. 01:30:56.958                             : en:Chapter 14
  99. 01:49:09.125                             : en:Chapter 15
  100. 02:08:00.208                             : en:Chapter 16





此处一般会放置磁力链或种子下载链接,不过此链接需要注册会员才能看到,点击“立即注册”
磁力链下载【下载链接仅对注册会员开放,登陆后可见】
BT9527电影天堂 1、BT9527电影天堂提供的BT文件均来源于互联网抓取,只供网友学习交流、技术提升使用。
2、我们遵守BitTorrent点对点协议原则,任何版权问题请联系原资源发布商,我们不处理任何版权纠纷,谢谢!如有争议请联系邮箱:BT9527#hotmail.com(#换成@)
3、如果您发现某页面或地址有错误,请联系站长邮箱BT9527#hotmail.com(#换成@),我们会尽快处理。您的热心是对BT9527电影天堂最大的支持。
4、本站建议去正规影院观看电影以支持电影行业发展。
最新回复 (0)

你可以在 登录 or 注册 后,对此帖发表评论!

返回
发新帖