姜戈[中英字幕].Django.1966.UHD.Bluray.2160p.SDR.x265.10bit.FLAC-MiniHD 22.35GB

版主小s 3月前 137

✔资源类型:BD-4K   ✔电影年份:更 早   ✔电影地区:其他   ✔电影分类:其他

◎译  名 姜戈 / 迪亚戈
◎片  名 Django
◎年  代 1966
◎产  地 意大利 / 西班牙
◎类  别 西部
◎语  言 意大利语
◎上映日期 1966-11-02
◎IMDb链接 https://www.imdb.com/title/tt0060315/
◎豆瓣评分 7.6/10 (4270人评价)
◎豆瓣链接 https://movie.douban.com/subject/1963163/
◎片  长 Spain: 87 分钟(censored version)
◎导  演 赛尔乔·科尔布奇 Sergio Corbucci (id:1036926)
◎编  剧 赛尔乔·科尔布奇 Sergio Corbucci (id:1036926)
       布鲁诺·科尔布奇 Bruno Corbucci (id:1031183)
       皮耶罗·里易欣 Piero Vivarelli (id:1033875)
       何塞·吉铁雷斯·马埃索 José Gutiérrez Maesso (id:1020004)
       弗兰科·罗塞蒂 Franco Rossetti (id:1030130)
◎演  员 弗兰科·内罗 Franco Nero (id:1036400)
       何塞·博达洛 José Bódalo (id:1069420)
       洛雷达娜·努斯齐亚克 Loredana Nusciak (id:1076958)
       安赫尔·阿尔瓦雷斯 ángel álvarez (id:1060632)
       吉诺·佩尔尼切 Gino Pernice (id:1128797)
       Rafael Albaicín Rafael Albaicín (id:1060198)
       Flora Carosello Flora Carosello (id:1344133)
       José Terrón José Terrón (id:1193909)
       卢西亚诺·罗西 Luciano Rossi (id:1111252)
       Cris Huerta Cris Huerta (id:1109324)
       Lucio De Santis Lucio De Santis (id:1083360)
       José Canalejas José Canalejas (id:1078818)
       爱德华多·法哈多 Eduardo Fajardo (id:1081953)
       赛尔乔·科尔布奇 Sergio Corbucci (id:1036926)
       路易斯·巴卡洛夫 Luis Enríquez Bacalov (id:1002960)
       恩佐·巴博尼 Enzo Barboni (id:1010003)
       尼诺·巴拉利 Nino Baragli (id:1277857)
       Sergio Montanari Sergio Montanari (id:1030655)
       Francisco Canet Francisco Canet (id:1053647)
       卡罗·斯密 Carlo Simi (id:1043001)
       Marcella De Marchis Marcella De Marchis (id:1015165)
       卡罗·斯密 Carlo Simi (id:1043001)
       鲁杰罗·德奥达托 Ruggero Deodato (id:1048256)

◎简  介
  荒凉的旷野,一群暴虐的劫匪正在鞭挞一位美丽的姑娘玛丽亚(萝蕾丹娜·卡波莱特 Loredana Cappelletti饰)。幸得迪亚戈(弗兰科·尼罗 Franco Nero饰)的解救。他神秘而冷峻,拖着一副棺材漫步在泥泞的荒野上。迪亚戈带着玛丽亚来到荒凉的小镇,人们对他的到来充满好奇,更对这副棺材里隐藏的秘密而惶惶不安。                                    
                                本片作为意大利西部片的经典暴力之作,曾在世界多国遭到禁映。2012年,鬼才导演昆汀·塔伦蒂诺拍摄的《被解放的姜戈》,向此片致敬。
  1. ##### MediaInfo ######
  2. General
  3. Unique ID                                : 253855292179214762483715689367571131668 (0xBEFAC0395696AED26DC2313F6385ED14)
  4. Complete name                            : Django.1966.UHD.Bluray.2160p.SDR.x265.10bit.FLAC-MiniHD.mkv
  5. Format                                   : Matroska
  6. Format version                           : Version 4
  7. File size                                : 22.3 GiB
  8. Duration                                 : 1 h 32 min
  9. Overall bit rate mode                    : Variable
  10. Overall bit rate                         : 34.7 Mb/s
  11. Movie name                               : Django (1966) 4K
  12. Encoded date                             : UTC 2020-12-14 06:52:06
  13. Writing application                      : mkvmerge v51.0.0 ('I Wish') 64-bit
  14. Writing library                          : libebml v1.4.0 + libmatroska v1.6.2
  15. Video
  16. ID                                       : 1
  17. Format                                   : HEVC
  18. Format/Info                              : High Efficiency Video Coding
  19. Format profile                           : Main 10@L5.1@High
  20. Codec ID                                 : V_MPEGH/ISO/HEVC
  21. Duration                                 : 1 h 32 min
  22. Bit rate                                 : 33.3 Mb/s
  23. Width                                    : 3 584 pixels
  24. Height                                   : 2 160 pixels
  25. Display aspect ratio                     : 5:3
  26. Frame rate mode                          : Constant
  27. Frame rate                               : 23.976 (24000/1001/53354) FPS
  28. Color space                              : YUV
  29. Chroma subsampling                       : 4:2:0
  30. Bit depth                                : 10 bits
  31. Bits/(Pixel*Frame)                       : 0.179
  32. Stream size                              : 21.4 GiB (96%)
  33. Writing library                          : x265 3.4+26-ga82c6c7a7:[Windows][MSVC 1927][64 bit] 10bit
  34. Encoding settings                        : cpuid=533541049583 / frame-threads=6 / numa-pools=20,20,20,20 / wpp / pmode / no-pme / no-psnr / no-ssim / log-level=2 / input-csp=1 / input-res=3584x2160 / interlace=0 / total-frames=132588 / level-idc=0 / high-tier=1 / uhd-bd=0 / ref=4 / no-allow-non-conformance / no-repeat-headers / annexb / no-aud / no-hrd / info / hash=0 / no-temporal-layers / no-open-gop / min-keyint=1 / keyint=250 / gop-lookahead=0 / bframes=6 / b-adapt=2 / b-pyramid / bframe-bias=0 / rc-lookahead=80 / lookahead-slices=0 / NTMzNTQ=uuDQuD2mJt9fsCf / scenecut=40 / hist-scenecut=0 / radl=0 / no-splice / no-intra-refresh / ctu=32 / min-cu-size=8 / no-rect / no-amp / max-tu-size=32 / tu-inter-depth=4 / tu-intra-depth=4 / limit-tu=0 / rdoq-level=2 / dynamic-rd=0.00 / no-ssim-rd / signhide / tskip / nr-intra=0 / nr-inter=0 / no-constrained-intra / strong-intra-smoothing / max-merge=5 / limit-refs=0 / no-limit-modes / me=3 / subme=7 / merange=44 / temporal-mvp / no-frame-dup / no-hme / weightp / weightb / no-analyze-src-pics / deblock=-3:-3 / no-sao / no-sao-non-deblock / rd=4 / selective-sao=0 / no-early-skip / no-rskip / no-fast-intra / no-tskip-fast / no-cu-lossless / b-intra / no-splitrd-skip / rdpenalty=0 / psy-rd=1.50 / psy-rdoq=1.00 / no-rd-refine / no-lossless / cbqpoffs=-2 / crqpoffs=-2 / rc=crf / crf=26.0 / qcomp=0.65 / qpstep=4 / stats-write=0 / stats-read=0 / vbv-maxrate=160000 / vbv-bufsize=160000 / vbv-init=0.9 / min-vbv-fullness=50.0 / max-vbv-fullness=80.0 / crf-max=0.0 / crf-min=0.0 / ipratio=1.30 / pbratio=1.20 / aq-mode=2 / aq-strength=0.90 / no-cutree / zone-count=0 / no-strict-cbr / qg-size=8 / no-rc-grain / qpmax=69 / qpmin=0 / no-const-vbv / sar=0 / overscan=0 / videoformat=5 / range=0 / colorprim=1 / transfer=1 / colormatrix=1 / chromaloc=0 / display-window=0 / cll=0,0 / min-luma=0 / max-luma=1023 / log2-max-poc-lsb=8 / vui-timing-info / vui-hrd-info / slices=1 / no-opt-qp-pps / no-opt-ref-list-length-pps / no-multi-pass-opt-rps / scenecut-bias=0.05 / hist-threshold=0.03 / no-opt-cu-delta-qp / no-aq-motion / no-hdr10 / no-hdr10-opt / no-dhdr10-opt / no-idr-recovery-sei / analysis-reuse-level=0 / analysis-save-reuse-level=0 / analysis-load-reuse-level=0 / scale-factor=0 / refine-intra=0 / refine-inter=0 / refine-mv=1 / refine-ctu-distortion=0 / no-limit-sao / ctu-info=0 / no-lowpass-dct / refine-analysis-type=0 / copy-pic=1 / max-ausize-factor=1.0 / no-dynamic-refine / no-single-sei / no-hevc-aq / no-svt / no-field / qp-adaptation-range=1.00 / no-scenecut-aware-qpconformance-window-offsets / right=0 / bottom=0 / NTMzNTQ= / decoder-max-rate=0 / no-vbv-live-multi-pass
  35. Default                                  : Yes
  36. Forced                                   : No
  37. Color range                              : Limited
  38. Color primaries                          : BT.709
  39. Transfer characteristics                 : BT.709
  40. Matrix coefficients                      : BT.709
  41. Audio #1
  42. ID                                       : 2
  43. Format                                   : FLAC
  44. Format/Info                              : Free Lossless Audio Codec
  45. Codec ID                                 : A_FLAC
  46. Duration                                 : 1 h 32 min
  47. Bit rate mode                            : Variable
  48. Bit rate                                 : 616 kb/s
  49. Channel(s)                               : 1 channel
  50. Channel layout                           : C
  51. Sampling rate                            : 48.0 kHz
  52. Frame rate                               : 11.719 FPS (4096 SPF)
  53. Bit depth                                : 24 bits
  54. Compression mode                         : Lossless
  55. Stream size                              : 406 MiB (2%)
  56. Writing library                          : libFLAC 1.2.1 (UTC 2007-09-17)
  57. Language                                 : Italian
  58. Default                                  : Yes
  59. Forced                                   : No
  60. Audio #2
  61. ID                                       : 3
  62. Format                                   : FLAC
  63. Format/Info                              : Free Lossless Audio Codec
  64. Codec ID                                 : A_FLAC
  65. Duration                                 : 1 h 32 min
  66. Bit rate mode                            : Variable
  67. Bit rate                                 : 592 kb/s
  68. Channel(s)                               : 1 channel
  69. Channel layout                           : C
  70. Sampling rate                            : 48.0 kHz
  71. Frame rate                               : 11.719 FPS (4096 SPF)
  72. Bit depth                                : 24 bits
  73. Compression mode                         : Lossless
  74. Stream size                              : 390 MiB (2%)
  75. Writing library                          : libFLAC 1.2.1 (UTC 2007-09-17)
  76. Language                                 : English
  77. Default                                  : No
  78. Forced                                   : No
  79. Audio #3
  80. ID                                       : 4
  81. Format                                   : AC-3
  82. Format/Info                              : Audio Coding 3
  83. Commercial name                          : Dolby Digital
  84. Codec ID                                 : A_AC3
  85. Duration                                 : 1 h 31 min
  86. Bit rate mode                            : Constant
  87. Bit rate                                 : 192 kb/s
  88. Channel(s)                               : 2 channels
  89. Channel layout                           : L R
  90. Sampling rate                            : 48.0 kHz
  91. Frame rate                               : 31.250 FPS (1536 SPF)
  92. Compression mode                         : Lossy
  93. Delay relative to video                  : 25 s 400 ms
  94. Stream size                              : 126 MiB (1%)
  95. Title                                    : Commentary by film critic Stephen Prince
  96. Language                                 : English
  97. Service kind                             : Complete Main
  98. Default                                  : No
  99. Forced                                   : No
  100. Text #1
  101. ID                                       : 5
  102. Format                                   : UTF-8
  103. Codec ID                                 : S_TEXT/UTF8
  104. Codec ID/Info                            : UTF-8 Plain Text
  105. Duration                                 : 1 h 26 min
  106. Bit rate                                 : 25 b/s
  107. Count of elements                        : 477
  108. Stream size                              : 16.1 KiB (0%)
  109. Language                                 : Chinese
  110. Default                                  : Yes
  111. Forced                                   : No
  112. Text #2
  113. ID                                       : 6
  114. Format                                   : PGS
  115. Muxing mode                              : zlib
  116. Codec ID                                 : S_HDMV/PGS
  117. Codec ID/Info                            : Picture based subtitle format used on BDs/HD-DVDs
  118. Duration                                 : 1 h 31 min
  119. Bit rate                                 : 16.3 kb/s
  120. Count of elements                        : 978
  121. Stream size                              : 10.7 MiB (0%)
  122. Title                                    : English
  123. Language                                 : English
  124. Default                                  : No
  125. Forced                                   : No
  126. Text #3
  127. ID                                       : 7
  128. Format                                   : PGS
  129. Muxing mode                              : zlib
  130. Codec ID                                 : S_HDMV/PGS
  131. Codec ID/Info                            : Picture based subtitle format used on BDs/HD-DVDs
  132. Duration                                 : 1 h 31 min
  133. Bit rate                                 : 23.7 kb/s
  134. Count of elements                        : 1478
  135. Stream size                              : 15.5 MiB (0%)
  136. Title                                    : English (SDH)
  137. Language                                 : English
  138. Default                                  : No
  139. Forced                                   : No
  140. Text #4
  141. ID                                       : 8
  142. Format                                   : PGS
  143. Muxing mode                              : zlib
  144. Codec ID                                 : S_HDMV/PGS
  145. Codec ID/Info                            : Picture based subtitle format used on BDs/HD-DVDs
  146. Duration                                 : 1 h 27 min
  147. Bit rate                                 : 13.1 kb/s
  148. Count of elements                        : 838
  149. Stream size                              : 8.25 MiB (0%)
  150. Title                                    : Danish
  151. Language                                 : Danish
  152. Default                                  : No
  153. Forced                                   : No
  154. Text #5
  155. ID                                       : 9
  156. Format                                   : PGS
  157. Muxing mode                              : zlib
  158. Codec ID                                 : S_HDMV/PGS
  159. Codec ID/Info                            : Picture based subtitle format used on BDs/HD-DVDs
  160. Duration                                 : 1 h 27 min
  161. Bit rate                                 : 12.7 kb/s
  162. Count of elements                        : 838
  163. Stream size                              : 7.95 MiB (0%)
  164. Title                                    : Finnish
  165. Language                                 : Finnish
  166. Default                                  : No
  167. Forced                                   : No
  168. Text #6
  169. ID                                       : 10
  170. Format                                   : PGS
  171. Muxing mode                              : zlib
  172. Codec ID                                 : S_HDMV/PGS
  173. Codec ID/Info                            : Picture based subtitle format used on BDs/HD-DVDs
  174. Duration                                 : 1 h 27 min
  175. Bit rate                                 : 12.2 kb/s
  176. Count of elements                        : 838
  177. Stream size                              : 7.67 MiB (0%)
  178. Title                                    : Norwegian
  179. Language                                 : Norwegian
  180. Default                                  : No
  181. Forced                                   : No
  182. Text #7
  183. ID                                       : 11
  184. Format                                   : PGS
  185. Muxing mode                              : zlib
  186. Codec ID                                 : S_HDMV/PGS
  187. Codec ID/Info                            : Picture based subtitle format used on BDs/HD-DVDs
  188. Duration                                 : 1 h 27 min
  189. Bit rate                                 : 13.4 kb/s
  190. Count of elements                        : 840
  191. Stream size                              : 8.43 MiB (0%)
  192. Title                                    : Swedish
  193. Language                                 : Swedish
  194. Default                                  : No
  195. Forced                                   : No
  196. Menu
  197. 00:00:00.000                             : en:Chapter 1
  198. 00:08:54.534                             : en:Chapter 2
  199. 00:14:37.626                             : en:Chapter 3
  200. 00:23:03.757                             : en:Chapter 4
  201. 00:29:47.077                             : en:Chapter 5
  202. 00:38:42.486                             : en:Chapter 6
  203. 00:50:22.102                             : en:Chapter 7
  204. 00:55:39.044                             : en:Chapter 8
  205. 01:03:09.118                             : en:Chapter 9
  206. 01:09:37.923                             : en:Chapter 10
  207. 01:18:23.448                             : en:Chapter 11
  208. 01:24:15.550                             : en:Chapter 12





此处一般会放置磁力链或种子下载链接,不过此链接需要注册会员才能看到,点击“立即注册”
磁力链下载【下载链接仅对注册会员开放,登陆后可见】
BT9527电影天堂 1、BT9527电影天堂提供的BT文件均来源于互联网抓取,只供网友学习交流、技术提升使用。
2、我们遵守BitTorrent点对点协议原则,任何版权问题请联系原资源发布商,我们不处理任何版权纠纷,谢谢!如有争议请联系邮箱:BT9527#hotmail.com(#换成@)
3、如果您发现某页面或地址有错误,请联系站长邮箱BT9527#hotmail.com(#换成@),我们会尽快处理。您的热心是对BT9527电影天堂最大的支持。
4、本站建议去正规影院观看电影以支持电影行业发展。
最新回复 (0)

你可以在 登录 or 注册 后,对此帖发表评论!

返回