生死狙击[国英多音轨/简体字幕].Shooter.2007.1080p.BluRay.x265.10bit.DTS-HomeHD 10.63GB

版主小s 3月前 181

✔资源类型:暂未分类   ✔电影年份:2007   ✔电影地区:欧美   ✔电影分类:剧情

◎译  名 生死狙击 / 狙击手 / 辣手枪(港) / 狙击生死线(台) / 神射手 / Double Target
◎片  名 Shooter
◎年  代 2007
◎产  地 美国
◎类  别 剧情 / 动作 / 惊悚
◎语  言 英语
◎上映日期 2007-05-12(中国大陆) / 2007-03-23(美国)
◎IMDb链接 https://www.imdb.com/title/tt0822854/
◎豆瓣评分 7.8/10 (144766人评价)
◎豆瓣链接 https://movie.douban.com/subject/1947549/
◎片  长 124分钟
◎导  演 安东尼·福奎阿 Antoine Fuqua (id:1013907)
◎编  剧 乔纳森·勒姆金 Jonathan Lemkin (id:1289778)
       史蒂芬·亨特 Stephen Hunter (id:1242781)
◎演  员 马克·沃尔伯格 Mark Wahlberg (id:1035674)
       迈克尔·佩纳 Michael Pe?a (id:1131634)
       丹尼·格洛弗 Danny Glover (id:1010571)
       凯特·玛拉 Kate Mara (id:1031801)
       伊莱亚斯·科泰斯 Elias Koteas (id:1031868)
       罗娜·迈特拉 Rhona Mitra (id:1022569)
       乔纳森·沃克 Jonathan Walker (id:1166807)
       路易斯·费雷拉 Louis Ferreira (id:1328428)
       泰特·多诺万 Tate Donovan (id:1027848)
       拉德·舍博德兹加 Rade Serbedzija (id:1025225)
       A·C·彼得森 A.C. Peterson (id:1380704)
       尼德·巴蒂 Ned Beatty (id:1010558)
       莱恩·加里逊 Lane Garrison (id:1018125)
       扎克·圣蒂亚戈 Zak Santiago (id:1323532)
       布莱恩·马克金森 Brian Markinson (id:1331398)
       汤姆·巴特勒 Tom Butler (id:1328973)
       Adrian Hughes Adrian Hughes (id:1056055)
       麦肯锡·葛雷 Mackenzie Gray (id:1092940)
       列翁·赫尔姆 Levon Helm (id:1100870)
       瑞贝卡·图兰 Rebecca Toolan (id:1148808)
       Trish Allen Trish Allen (id:1057950)
       约翰·腾奇 John Tench (id:1441055)
       布拉德·凯利 Brad Kelly (id:1431331)
       戴维·尼尔 David Neale (id:1132286)
       苏珊·巴内特 Susan Barnett (id:1251535)
       尤基·华盛顿 Ukee Washington (id:1166612)
       麦克·多普德 Mike Dopud (id:1088714)
       乔纳森·埃斯比奥 Jonathan Eusebio (id:1283325)
        Vale Anoai (id:1241828)
        Sharon Carpenter-Rose (id:1258787)
       大卫·尼尔里姆 David Kneeream (id:1206043)
       Holly Eglington Holly Eglington (id:1191177)
       亚历山大·埃默特 Alexander Emmert (id:1028437)
       利亚姆·费格森 Liam Ferguson (id:1263245)
       Patrick Ferguson Patrick Ferguson (id:1033849)
       塔米·吉利斯 Tammy Gillis (id:1391325)
       劳伦·格莱齐尔 Lauren Glazier (id:1421862)
       科里·卡斯特尔 Cory Kastle (id:1265421)
       Roberto Lombardi Roberto Lombardi (id:1014597)
       麦克·麦克唐纳德 Mac McDonald (id:1019219)
       李莉 Lil Rhee (id:1359573)
        Roger Sands (id:1226179)
        Eugene Smith (id:1231381)
       帕特里克·迈克尔·斯特兰奇 Patrick Michael Strange (id:1257689)
       弗兰克·特雷诺 Frank Traynor (id:1251775)
        Sean Traynor (id:1238551)
       丹·范·沃特 Dan Van Wert (id:1374630)
       托雷尔·文森 Torell Vinson (id:1264518)
       Jamal Weathers Jamal Weathers (id:1218302)
       唐沃特利 Don Whatley (id:1197716)
       贾斯汀·路易斯 Justin Louis (id:1031966)
       马克·约翰逊 Mark Johnson (id:1276128)
       洛伦佐·迪·博纳文图拉 Lorenzo di Bonaventura (id:1282389)
       马克·曼西纳 Mark Mancina (id:1032518)
       小彼得·孟席斯 Peter Menzies Jr. (id:1443467)
       康拉德·巴夫四世 Conrad Buff IV (id:1279581)
       埃里克·A·西尔斯 Eric A. Sears (id:1297119)
       马里·芬恩 Mali Finn (id:1080809)
       J·丹尼斯·华盛顿 J. Dennis Washington (id:1300478)
       Ha Nguyen Ha Nguyen (id:1293123)
       比尔·特雷扎基斯 Bill Terezakis (id:1299071)
       唐纳德·莫瓦特 Donald Mowat (id:1130617)
       Donna Bis Donna Bis (id:1278685)
       Dean Scheck Dean Scheck (id:1296839)
       维多利亚·道恩 Victoria Down (id:1282673)
       吉特·阿克森 Gitte Axen (id:1058385)
       罗伯特·A·潘蒂尼 Robert A. Pandini (id:1055674)
       Joe Cacciotti Joe Cacciotti (id:1054054)
       Shannon Pratt Shannon Pratt (id:1132306)
       Dan Mansfield Dan Mansfield (id:1290906)
       Jeff Habberstad Jeff Habberstad (id:1285749)
       Conte Matal Conte Matal (id:1119209)
       David Sosalla David Sosalla (id:1298080)
       科林·施特劳斯 Colin Strause (id:1041429)
       布莱恩·哈纳伯 Brian Hanable (id:1090997)
       埃德森·威廉姆斯 Edson Williams (id:1043237)
       Johnny Turco Johnny Turco (id:1204948)
       马克·安德烈·萨姆森 Marc-Andre Samson (id:1296592)
       克里斯·英格索尔 Chris Ingersoll (id:1102738)
       Jeff Heusser Jeff Heusser (id:1096668)
       凯西·艾伦 Casey Allen (id:1020582)
       Jim O'Hagan Jim O'Hagan (id:1126364)
        Sean Wallitsch (id:1234089)
       迪克·费朗 Deak Ferrand (id:1283613)
       Scott Beverly Scott Beverly (id:1278564)

◎简  介
  这是一部谍中谍式的电影,不过主角换成了狙击手。美国退役优秀狙击手鲍勃(马克?沃尔伯格 Mark Wahlberg 饰)正在阿肯色州享受退役后的休闲时光,不料,平地生波,他的前上司前来拜访他,希望他能接受一项新的任务――在总统街头演讲那天充当隐形狙击手暗中保护总统。虽然十万分不情愿,但禁不住上司的游说,鲍勃最终答应了。总统演讲那天,鲍勃正在仔细观察着四周情况时,突然会场遭到枪手袭击,总统身边的衣索比亚主教被杀。鲍勃被当成暗杀者遭遇警方追捕。心知成了替罪羔羊,鲍勃在身中两枪的情况下奋力逃走了。鲍勃此时唯一的出路就是找出幕后的真凶,为自己洗刷罪名。
  1. ##### MediaInfo ######
  2. General
  3. Unique ID                                : 236497988987605278572133729523804039962 (0xB1EBDB1ACFB68717B1ED5635D4826B1A)
  4. Complete name                            : Shooter.2007.1080p.BluRay.x265.10bit.DTS-HomeHD.mkv
  5. Format                                   : Matroska
  6. Format version                           : Version 1
  7. File size                                : 10.6 GiB
  8. Duration                                 : 2 h 5 min
  9. Overall bit rate                         : 12.1 Mb/s
  10. Encoded date                             : UTC 2022-06-15 03:36:15
  11. Writing application                      : mkvmerge v2.2.0 ('Turn It On Again') built on Mar  4 2008 13:20:25
  12. Writing library                          : libebml v0.7.7 + libmatroska v0.8.1
  13. Attachments                              : MSYH.TTF / MSYH_chscht.ttf / MSYHBD.TTF / tahoma.ttf
  14. Video
  15. ID                                       : 1
  16. Format                                   : HEVC
  17. Format/Info                              : High Efficiency Video Coding
  18. Format profile                           : Main 10@L4@Main
  19. Codec ID                                 : V_MPEGH/ISO/HEVC
  20. Duration                                 : 2 h 5 min
  21. Bit rate                                 : 8 850 kb/s
  22. Width                                    : 1 920 pixels
  23. Height                                   : 800 pixels
  24. Display aspect ratio                     : 2.40:1
  25. Frame rate mode                          : Constant
  26. Frame rate                               : 23.976 (24000/1001/53354) FPS
  27. Color space                              : YUV
  28. Chroma subsampling                       : 4:2:0
  29. Bit depth                                : 10 bits
  30. Bits/(Pixel*Frame)                       : 0.240
  31. Stream size                              : 7.77 GiB (73%)
  32. Default                                  : Yes
  33. Forced                                   : No
  34. Audio #1
  35. ID                                       : 2
  36. Format                                   : DTS
  37. Format/Info                              : Digital Theater Systems
  38. Codec ID                                 : A_DTS
  39. Duration                                 : 2 h 5 min
  40. Bit rate mode                            : Constant
  41. Bit rate                                 : 1 510 kb/s
  42. Channel(s)                               : 6 channels
  43. Channel layout                           : C L R Ls Rs LFE
  44. Sampling rate                            : 48.0 kHz
  45. Frame rate                               : 93.750 FPS (512 SPF)
  46. Bit depth                                : 24 bits
  47. Compression mode                         : Lossy
  48. Stream size                              : 1.33 GiB (12%)
  49. Title                                    : 英语
  50. Language                                 : English
  51. Default                                  : No
  52. Forced                                   : No
  53. Statistics Tags Issue                    : mkvmerge v67.0.0 ('Under Stars') 64-bit 2022-06-07 21:21:17 / mkvmerge v2.2.0 ('Turn It On Again') built on Mar  4 2008 13:20:25 2022-06-15 03:36:15
  54. FromStats_BitRate                        : 1509750
  55. FromStats_Duration                       : 02:05:41.920000000
  56. FromStats_FrameCount                     : 707055
  57. FromStats_StreamSize                     : 1423301715
  58. Audio #2
  59. ID                                       : 3
  60. Format                                   : DTS
  61. Format/Info                              : Digital Theater Systems
  62. Codec ID                                 : A_DTS
  63. Duration                                 : 2 h 5 min
  64. Bit rate mode                            : Constant
  65. Bit rate                                 : 1 509 kb/s
  66. Channel(s)                               : 6 channels
  67. Channel layout                           : C L R Ls Rs LFE
  68. Sampling rate                            : 48.0 kHz
  69. Frame rate                               : 93.750 FPS (512 SPF)
  70. Bit depth                                : 24 bits
  71. Compression mode                         : Lossy
  72. Delay relative to video                  : 500 ms
  73. Stream size                              : 1.32 GiB (12%)
  74. Title                                    : 北影国配
  75. Language                                 : Chinese
  76. Default                                  : Yes
  77. Forced                                   : No
  78. Statistics Tags Issue                    : mkvmerge v67.0.0 ('Under Stars') 64-bit 2022-06-07 21:21:17 / mkvmerge v2.2.0 ('Turn It On Again') built on Mar  4 2008 13:20:25 2022-06-15 03:36:15
  79. FromStats_BitRate                        : 1509000
  80. FromStats_Duration                       : 02:05:40.352000000
  81. FromStats_FrameCount                     : 706908
  82. FromStats_StreamSize                     : 1422298896
  83. Text
  84. ID                                       : 4
  85. Format                                   : ASS
  86. Codec ID                                 : S_TEXT/ASS
  87. Codec ID/Info                            : Advanced Sub Station Alpha
  88. Compression mode                         : Lossless
  89. Title                                    : chs
  90. Language                                 : Chinese
  91. Default                                  : Yes
  92. Forced                                   : No





此处一般会放置磁力链或种子下载链接,不过此链接需要注册会员才能看到,点击“立即注册”
磁力链下载【下载链接仅对注册会员开放,登陆后可见】
BT9527电影天堂 1、BT9527电影天堂提供的BT文件均来源于互联网抓取,只供网友学习交流、技术提升使用。
2、我们遵守BitTorrent点对点协议原则,任何版权问题请联系原资源发布商,我们不处理任何版权纠纷,谢谢!如有争议请联系邮箱:BT9527#hotmail.com(#换成@)
3、如果您发现某页面或地址有错误,请联系站长邮箱BT9527#hotmail.com(#换成@),我们会尽快处理。您的热心是对BT9527电影天堂最大的支持。
4、本站建议去正规影院观看电影以支持电影行业发展。
最新回复 (0)

你可以在 登录 or 注册 后,对此帖发表评论!

返回
发新帖