黄金三镖客[国英多音轨/中英字幕].The.Good.the.Bad.and.the.Ugly.1966.BluRay.1080p.x265.10bit.2Audio-MiniHD 15.42GB

版主小s 18天前 32

✔资源类型:暂未分类   ✔电影年份:更 早   ✔电影地区:其他   ✔电影分类:其他

◎译  名 黄金三镖客 / 好·坏·丑 / 独行侠决斗地狱门(港) / 黄昏三镖客(台) / 好家伙,坏家伙,丑家伙 / 善恶丑 / The Good, the Bad and the Ugly
◎片  名 Il buono, il brutto, il cattivo
◎年  代 1966
◎产  地 意大利 / 西班牙 / 西德
◎类  别 西部 / 冒险
◎语  言 意大利语 / 英语
◎上映日期 1966-12-23(意大利)
◎IMDb链接 https://www.imdb.com/title/tt0060196/
◎豆瓣评分 9.2/10 (109771人评价)
◎豆瓣链接 https://movie.douban.com/subject/1401118/
◎片  长 162分钟
◎导  演 赛尔乔·莱昂内 Sergio Leone (id:1013894)
◎编  剧 阿杰诺雷·因克罗奇 Agenore Incrocci (id:1012768)
       富里奥·斯卡佩利 Furio Scarpelli (id:1037617)
       卢恰诺·温琴佐尼 Luciano Vincenzoni (id:1032879)
       赛尔乔·莱昂内 Sergio Leone (id:1013894)
◎演  员 克林特·伊斯特伍德 Clint Eastwood (id:1054436)
       埃里·瓦拉赫 Eli Wallach (id:1036385)
       李·范·克里夫 Lee Van Cleef (id:1013853)
       阿尔多·久弗瑞 Aldo Giuffrè (id:1094842)
       路易吉·皮斯蒂利 Luigi Pistilli (id:1128224)
       拉达·拉西莫夫 Rada Rassimov (id:1295271)
       马里奥·布雷加 Mario Brega (id:1079012)
       恩尼奥·莫里康内 Ennio Morricone (id:1044688)
       托尼诺·德里·戈里 Tonino Delli Colli (id:1041877)
       尼诺·巴拉利 Nino Baragli (id:1277857)
       卡罗·斯密 Carlo Simi (id:1043001)
       卡罗·斯密 Carlo Simi (id:1043001)

◎简  介
  故事发生在美国南北战争时期。图科(埃里?瓦拉赫 Eli Wallach 饰)是一个图财害命的江洋大盗,因此他被镇上悬赏通缉。布兰迪(克林特?伊斯特伍德 Clint Eastwood  饰)是一个除暴安良的牛仔,他无意中抓住了图科,但嫌赏金不够又掳走了他。在荒漠中,布兰迪惩罚图科让其自生自灭。但是诡诈的图科居然逃过了一劫,并纠集一些帮凶在客栈捉住了布兰迪。正当图科以牙还牙折磨布兰迪的时候,他劫持了一个名叫卡森的士兵。后者临死前留下了宝藏的秘密,图科和布兰迪分别获得了一半信息。与此同时,一个狡猾的杀手桑坦萨(李?范?克里夫 Lee Van Cleef 饰)也通过其他渠道发现了宝藏的秘密。于是,在寻宝的道路上,三个人使出浑身解数,上演了一场场对决的好戏……
  1. ##### MediaInfo ######
  2. General
  3. Unique ID                                : 239664831718129261154138640383520436946 (0xB44DC48194B47557BE637B56F78A72D2)
  4. Complete name                            : The.Good.the.Bad.and.the.Ugly.1966.BluRay.1080p.x265.10bit.2Audio-MiniHD.mkv
  5. Format                                   : Matroska
  6. Format version                           : Version 4
  7. File size                                : 15.4 GiB
  8. Duration                                 : 2 h 58 min
  9. Overall bit rate                         : 12.4 Mb/s
  10. Encoded date                             : UTC 2017-05-31 11:25:20
  11. Writing application                      : mkvmerge v11.0.0 ('Alive') 64bit
  12. Writing library                          : libebml v1.3.4 + libmatroska v1.4.5
  13. Video
  14. ID                                       : 1
  15. Format                                   : HEVC
  16. Format/Info                              : High Efficiency Video Coding
  17. Codec ID                                 : V_MPEGH/ISO/HEVC
  18. Duration                                 : 2 h 58 min
  19. Bit rate                                 : 11.3 Mb/s
  20. Width                                    : 1 920 pixels
  21. Height                                   : 816 pixels
  22. Display aspect ratio                     : 2.35:1
  23. Frame rate mode                          : Constant
  24. Frame rate                               : 23.976 (24000/1001/53354) FPS
  25. Bits/(Pixel*Frame)                       : 0.300
  26. Stream size                              : 14.1 GiB (91%)
  27. Default                                  : Yes
  28. Forced                                   : No
  29. Audio #1
  30. ID                                       : 2
  31. Format                                   : AC-3
  32. Format/Info                              : Audio Coding 3
  33. Commercial name                          : Dolby Digital
  34. Codec ID                                 : A_AC3
  35. Duration                                 : 2 h 58 min
  36. Bit rate mode                            : Constant
  37. Bit rate                                 : 640 kb/s
  38. Channel(s)                               : 6 channels
  39. Channel layout                           : L R C LFE Ls Rs
  40. Sampling rate                            : 48.0 kHz
  41. Frame rate                               : 31.250 FPS (1536 SPF)
  42. Compression mode                         : Lossy
  43. Stream size                              : 818 MiB (5%)
  44. Language                                 : English
  45. Service kind                             : Complete Main
  46. Default                                  : Yes
  47. Forced                                   : No
  48. Audio #2
  49. ID                                       : 3
  50. Format                                   : AC-3
  51. Format/Info                              : Audio Coding 3
  52. Commercial name                          : Dolby Digital
  53. Codec ID                                 : A_AC3
  54. Duration                                 : 2 h 58 min
  55. Bit rate mode                            : Constant
  56. Bit rate                                 : 192 kb/s
  57. Channel(s)                               : 2 channels
  58. Channel layout                           : L R
  59. Sampling rate                            : 48.0 kHz
  60. Frame rate                               : 31.250 FPS (1536 SPF)
  61. Compression mode                         : Lossy
  62. Stream size                              : 245 MiB (2%)
  63. Language                                 : Chinese
  64. Service kind                             : Complete Main
  65. Default                                  : No
  66. Forced                                   : No
  67. Text #1
  68. ID                                       : 4
  69. Format                                   : PGS
  70. Muxing mode                              : zlib
  71. Codec ID                                 : S_HDMV/PGS
  72. Codec ID/Info                            : Picture based subtitle format used on BDs/HD-DVDs
  73. Language                                 : English
  74. Default                                  : Yes
  75. Forced                                   : No
  76. Text #2
  77. ID                                       : 5
  78. Format                                   : PGS
  79. Muxing mode                              : zlib
  80. Codec ID                                 : S_HDMV/PGS
  81. Codec ID/Info                            : Picture based subtitle format used on BDs/HD-DVDs
  82. Language                                 : Chinese
  83. Default                                  : No
  84. Forced                                   : No
  85. Text #3
  86. ID                                       : 6
  87. Format                                   : PGS
  88. Muxing mode                              : zlib
  89. Codec ID                                 : S_HDMV/PGS
  90. Codec ID/Info                            : Picture based subtitle format used on BDs/HD-DVDs
  91. Language                                 : Chinese
  92. Default                                  : No
  93. Forced                                   : No
  94. Text #4
  95. ID                                       : 7
  96. Format                                   : PGS
  97. Muxing mode                              : zlib
  98. Codec ID                                 : S_HDMV/PGS
  99. Codec ID/Info                            : Picture based subtitle format used on BDs/HD-DVDs
  100. Language                                 : Chinese
  101. Default                                  : No
  102. Forced                                   : No
  103. Menu
  104. 00:00:00.000                             : en:Chapter 01
  105. 00:03:01.806                             : en:Chapter 02
  106. 00:06:06.282                             : en:Chapter 03
  107. 00:15:09.909                             : en:Chapter 04
  108. 00:17:32.301                             : en:Chapter 05
  109. 00:22:02.446                             : en:Chapter 06
  110. 00:24:43.440                             : en:Chapter 07
  111. 00:27:53.797                             : en:Chapter 08
  112. 00:29:48.828                             : en:Chapter 09
  113. 00:32:11.846                             : en:Chapter 10
  114. 00:38:24.510                             : en:Chapter 11
  115. 00:41:40.581                             : en:Chapter 12
  116. 00:49:44.314                             : en:Chapter 13
  117. 00:54:01.821                             : en:Chapter 14
  118. 00:57:25.733                             : en:Chapter 15
  119. 01:06:05.336                             : en:Chapter 16
  120. 01:13:40.541                             : en:Chapter 17
  121. 01:22:38.870                             : en:Chapter 18
  122. 01:29:27.737                             : en:Chapter 19
  123. 01:35:34.270                             : en:Chapter 20
  124. 01:38:28.611                             : en:Chapter 21
  125. 01:47:07.629                             : en:Chapter 22
  126. 01:53:20.668                             : en:Chapter 23
  127. 01:57:02.432                             : en:Chapter 24
  128. 02:06:06.684                             : en:Chapter 25
  129. 02:11:00.394                             : en:Chapter 26
  130. 02:17:42.170                             : en:Chapter 27
  131. 02:23:56.711                             : en:Chapter 28
  132. 02:32:55.040                             : en:Chapter 29
  133. 02:39:32.521                             : en:Chapter 30
  134. 02:43:19.664                             : en:Chapter 31
  135. 02:49:01.089                             : en:Chapter 32





此处一般会放置磁力链或种子下载链接,不过此链接需要注册会员才能看到,点击“立即注册”
磁力链下载【下载链接仅对注册会员开放,登陆后可见】
BT9527电影天堂 1、BT9527电影天堂提供的BT文件均来源于互联网抓取,只供网友学习交流、技术提升使用。
2、我们遵守BitTorrent点对点协议原则,任何版权问题请联系原资源发布商,我们不处理任何版权纠纷,谢谢!如有争议请联系邮箱:BT9527#hotmail.com(#换成@)
3、如果您发现某页面或地址有错误,请联系站长邮箱BT9527#hotmail.com(#换成@),我们会尽快处理。您的热心是对BT9527电影天堂最大的支持。
4、本站建议去正规影院观看电影以支持电影行业发展。
最新回复 (0)

你可以在 登录 or 注册 后,对此帖发表评论!

返回
发新帖