黄昏双镖客[国英多音轨/中英字幕].For.a.Few.Dollars.More.1965.BluRay.1080p.x265.10bit.2Audio-MiniHD 7.41GB

版主小s 18天前 27

✔资源类型:暂未分类   ✔电影年份:更 早   ✔电影地区:其他   ✔电影分类:其他

◎译  名 黄昏双镖客 / 独行侠江湖伏霸(港) / 金钱与仇恨 / 赏金杀手 / 为钱卖命 / 为了更多的几块钱 / For a Few Dollars More
◎片  名 Per qualche dollaro in più
◎年  代 1965
◎产  地 意大利 / 西班牙 / 西德
◎类  别 西部
◎语  言 意大利语 / 英语
◎上映日期 1965-12-18(意大利)
◎IMDb链接 https://www.imdb.com/title/tt0059578/
◎豆瓣评分 8.9/10 (43988人评价)
◎豆瓣链接 https://movie.douban.com/subject/1295586/
◎片  长 132分钟
◎导  演 赛尔乔·莱昂内 Sergio Leone (id:1013894)
◎编  剧 赛尔乔·莱昂内 Sergio Leone (id:1013894)
       富尔维奥·莫尔塞拉 Fulvio Morsella (id:1334688)
       卢恰诺·温琴佐尼 Luciano Vincenzoni (id:1032879)
       费尔南多·迪·莱沃 Fernando Di Leo (id:1016821)
       赛尔乔·多纳蒂 Sergio Donati (id:1333472)
◎演  员 克林特·伊斯特伍德 Clint Eastwood (id:1054436)
       李·范·克里夫 Lee Van Cleef (id:1013853)
       吉安·马里亚·沃隆特 Gian Maria Volonté (id:1000353)
       马里奥·布雷加 Mario Brega (id:1079012)
       路易吉·皮斯蒂利 Luigi Pistilli (id:1128224)
       阿尔多·桑布雷利 Aldo Sambrell (id:1032635)
       克劳斯·金斯基 Klaus Kinski (id:1027898)
       贝尼托·斯特凡内利 Benito Stefanelli (id:1150306)
       罗伯托·卡马迭尔 Roberto Camardiel (id:1077045)
       约瑟夫·埃格 Joseph Egger (id:1089965)
       Tomás Blanco Tomás Blanco (id:1064424)
       Sergio Mendizábal Sergio Mendizábal (id:1119100)
       Dante Maggio Dante Maggio (id:1120423)
       Werner Abrolat Werner Abrolat (id:1056062)
       弗兰克·布拉尼亚 Frank Bra?a (id:1073765)
       José Canalejas José Canalejas (id:1078818)
       萝丝玛丽·德克斯特 Rosemary Dexter (id:1327517)
       费尔南多·迪·莱沃 Fernando Di Leo (id:1016821)
       Robert Dryden Robert Dryden (id:1079718)
       Bernie Grant Bernie Grant (id:1093992)
       Jesús Guzmán Jesús Guzmán (id:1094823)
       彼得·李·劳伦斯 Peter Lee Lawrence (id:1109005)
       赛尔乔·莱昂内 Sergio Leone (id:1013894)
       Gilbert Mack Gilbert Mack (id:1115350)
       纳扎雷诺·纳塔莱 Nazzareno Natale (id:1136608)
       Ricardo Palacios Ricardo Palacios (id:1033297)
       卡罗·斯密 Carlo Simi (id:1043001)
       José Terrón José Terrón (id:1193909)
       Kurt Zips Kurt Zips (id:1168063)
       恩尼奥·莫里康内 Ennio Morricone (id:1044688)
       马斯默·达拉马诺 Massimo Dallamano (id:1002940)
       卡罗·斯密 Carlo Simi (id:1043001)
       卡罗·斯密 Carlo Simi (id:1043001)

◎简  介
  Indio(吉昂·马利亚·沃隆特 Gian Maria Volonté 饰)是一个穷凶极恶的通缉犯,他伙同他的团伙屡次作案,他有一个怀表,每次大开杀戒之前都会看一看表,表上有一个女人的照片。赏金猎人Manco(克林特·伊斯特伍德 Clint Eastwood 饰)正在追捕Indio,而另外一个赏金猎人Colonel Douglas Mortimer(李·范·克里夫 Lee Van Cleef 饰)也在追捕同样的目标。两人一开始都看对方不顺眼,后来才决定一起追捕Indio。两人得知Indio准备去抢劫银行,于是定下计谋,让Monco加入Indio的团队,之后再和Mortimer来个里应外合。后来两人不慎被Indio所抓获。到底Manco和Mortimer能否除掉Indio,而Indio怀表里那个女人又和Mortimer有何联系?                                       
                                    本片为意大利导演赛尔乔...
  1. ##### MediaInfo ######
  2. General
  3. Unique ID                                : 175651463243483633942689662665123291508 (0x84253DC4C32C6AEA96160B0E601DE174)
  4. Complete name                            : For.a.Few.Dollars.More.1965.BluRay.1080p.x265.10bit.2Audio-MiniHD.mkv
  5. Format                                   : Matroska
  6. Format version                           : Version 4
  7. File size                                : 7.41 GiB
  8. Duration                                 : 2 h 11 min
  9. Overall bit rate                         : 8 050 kb/s
  10. Encoded date                             : UTC 2017-06-01 06:22:45
  11. Writing application                      : mkvmerge v11.0.0 ('Alive') 64bit
  12. Writing library                          : libebml v1.3.4 + libmatroska v1.4.5
  13. Video
  14. ID                                       : 1
  15. Format                                   : HEVC
  16. Format/Info                              : High Efficiency Video Coding
  17. Codec ID                                 : V_MPEGH/ISO/HEVC
  18. Duration                                 : 2 h 11 min
  19. Bit rate                                 : 7 026 kb/s
  20. Width                                    : 1 920 pixels
  21. Height                                   : 814 pixels
  22. Display aspect ratio                     : 2.35:1
  23. Frame rate mode                          : Constant
  24. Frame rate                               : 23.976 (24000/1001/53354) FPS
  25. Bits/(Pixel*Frame)                       : 0.187
  26. Stream size                              : 6.46 GiB (87%)
  27. Default                                  : Yes
  28. Forced                                   : No
  29. Audio #1
  30. ID                                       : 2
  31. Format                                   : AC-3
  32. Format/Info                              : Audio Coding 3
  33. Commercial name                          : Dolby Digital
  34. Codec ID                                 : A_AC3
  35. Duration                                 : 2 h 11 min
  36. Bit rate mode                            : Constant
  37. Bit rate                                 : 640 kb/s
  38. Channel(s)                               : 6 channels
  39. Channel layout                           : L R C LFE Ls Rs
  40. Sampling rate                            : 48.0 kHz
  41. Frame rate                               : 31.250 FPS (1536 SPF)
  42. Compression mode                         : Lossy
  43. Stream size                              : 603 MiB (8%)
  44. Language                                 : English
  45. Service kind                             : Complete Main
  46. Default                                  : Yes
  47. Forced                                   : No
  48. Audio #2
  49. ID                                       : 3
  50. Format                                   : AC-3
  51. Format/Info                              : Audio Coding 3
  52. Commercial name                          : Dolby Digital
  53. Codec ID                                 : A_AC3
  54. Duration                                 : 2 h 11 min
  55. Bit rate mode                            : Constant
  56. Bit rate                                 : 224 kb/s
  57. Channel(s)                               : 2 channels
  58. Channel layout                           : L R
  59. Sampling rate                            : 44.1 kHz
  60. Frame rate                               : 28.711 FPS (1536 SPF)
  61. Compression mode                         : Lossy
  62. Stream size                              : 211 MiB (3%)
  63. Language                                 : Chinese
  64. Service kind                             : Complete Main
  65. Default                                  : No
  66. Forced                                   : No
  67. Text #1
  68. ID                                       : 4
  69. Format                                   : PGS
  70. Muxing mode                              : zlib
  71. Codec ID                                 : S_HDMV/PGS
  72. Codec ID/Info                            : Picture based subtitle format used on BDs/HD-DVDs
  73. Language                                 : English
  74. Default                                  : Yes
  75. Forced                                   : No
  76. Text #2
  77. ID                                       : 5
  78. Format                                   : PGS
  79. Muxing mode                              : zlib
  80. Codec ID                                 : S_HDMV/PGS
  81. Codec ID/Info                            : Picture based subtitle format used on BDs/HD-DVDs
  82. Language                                 : Chinese
  83. Default                                  : No
  84. Forced                                   : No
  85. Text #3
  86. ID                                       : 6
  87. Format                                   : PGS
  88. Muxing mode                              : zlib
  89. Codec ID                                 : S_HDMV/PGS
  90. Codec ID/Info                            : Picture based subtitle format used on BDs/HD-DVDs
  91. Language                                 : Chinese
  92. Default                                  : No
  93. Forced                                   : No
  94. Menu
  95. 00:00:00.000                             : en:Chapter 01
  96. 00:04:05.870                             : en:Chapter 02
  97. 00:06:27.095                             : en:Chapter 03
  98. 00:11:48.289                             : en:Chapter 04
  99. 00:13:07.160                             : en:Chapter 05
  100. 00:18:29.482                             : en:Chapter 06
  101. 00:24:25.005                             : en:Chapter 07
  102. 00:30:50.138                             : en:Chapter 08
  103. 00:32:51.594                             : en:Chapter 09
  104. 00:35:27.332                             : en:Chapter 10
  105. 00:40:05.777                             : en:Chapter 11
  106. 00:41:00.832                             : en:Chapter 12
  107. 00:48:31.157                             : en:Chapter 13
  108. 00:51:32.296                             : en:Chapter 14
  109. 00:57:14.930                             : en:Chapter 15
  110. 01:02:05.220                             : en:Chapter 16
  111. 01:04:07.717                             : en:Chapter 17
  112. 01:08:08.541                             : en:Chapter 18
  113. 01:10:07.243                             : en:Chapter 19
  114. 01:14:11.113                             : en:Chapter 20
  115. 01:21:22.127                             : en:Chapter 21
  116. 01:26:00.697                             : en:Chapter 22
  117. 01:30:13.323                             : en:Chapter 23
  118. 01:33:47.912                             : en:Chapter 24
  119. 01:35:55.082                             : en:Chapter 25
  120. 01:41:39.091                             : en:Chapter 26
  121. 01:47:33.154                             : en:Chapter 27
  122. 01:50:28.246                             : en:Chapter 28
  123. 01:55:21.163                             : en:Chapter 29
  124. 01:57:50.313                             : en:Chapter 30
  125. 02:00:51.743                             : en:Chapter 31
  126. 02:06:40.676                             : en:Chapter 32





此处一般会放置磁力链或种子下载链接,不过此链接需要注册会员才能看到,点击“立即注册”
磁力链下载【下载链接仅对注册会员开放,登陆后可见】
BT9527电影天堂 1、BT9527电影天堂提供的BT文件均来源于互联网抓取,只供网友学习交流、技术提升使用。
2、我们遵守BitTorrent点对点协议原则,任何版权问题请联系原资源发布商,我们不处理任何版权纠纷,谢谢!如有争议请联系邮箱:BT9527#hotmail.com(#换成@)
3、如果您发现某页面或地址有错误,请联系站长邮箱BT9527#hotmail.com(#换成@),我们会尽快处理。您的热心是对BT9527电影天堂最大的支持。
4、本站建议去正规影院观看电影以支持电影行业发展。
最新回复 (0)

你可以在 登录 or 注册 后,对此帖发表评论!

返回
发新帖