飞屋环游记[国粤英多音轨/简英特效字幕].Up.2009.UHD.BluRay.2160p.x265.10bit.HDR.4Audios-MiniHD 13.89GB

版主小s 12天前 23

✔资源类型:BD-4K   ✔电影年份:2009   ✔电影地区:欧美   ✔电影分类:剧情

◎译  名 飞屋环游记 / 冲天救兵(港) / 天外奇迹(台) / 飞屋历险记
◎片  名 Up
◎年  代 2009
◎产  地 美国
◎类  别 剧情 / 喜剧 / 动画 / 冒险
◎语  言 英语
◎上映日期 2009-08-04(中国大陆) / 2009-05-13(戛纳电影节) / 2009-05-29(美国)
◎IMDb链接 https://www.imdb.com/title/tt1049413/
◎豆瓣评分 9.1/10 (1215190人评价)
◎豆瓣链接 https://movie.douban.com/subject/2129039/
◎片  长 96分钟
◎导  演 彼特·道格特 Pete Docter (id:1022803)
       鲍勃·彼德森 Bob Peterson (id:1294383)
◎编  剧 彼特·道格特 Pete Docter (id:1022803)
       鲍勃·彼德森 Bob Peterson (id:1294383)
       汤姆·麦卡锡 Tom McCarthy (id:1004746)
◎演  员 爱德华·阿斯纳 Edward Asner (id:1054334)
       克里斯托弗·普卢默 Christopher Plummer (id:1036321)
       乔丹·长井 Jordan Nagai (id:1004683)
       鲍勃·彼德森 Bob Peterson (id:1294383)
       德尔罗伊·林多 Delroy Lindo (id:1040621)
       杰罗姆·兰福特 Jerome Ranft (id:1381870)
       约翰·拉岑贝格 John Ratzenberger (id:1002680)
       大卫·卡耶 David Kaye (id:1113688)
       艾丽·道克特 Elie Docter (id:1381871)
       杰里米·利里 Jeremy Leary (id:1381875)
       米凯·麦高万 Mickie McGowan (id:1348616)
       丹尼·曼恩 Danny Mann (id:1348619)
       唐纳德·富利洛夫 Donald Fullilove (id:1353055)
       杰斯·哈梅尔 Jess Harnell (id:1016698)
       乔什·库雷 Josh Cooley (id:1348615)
       彼特·道格特 Pete Docter (id:1022803)
       布兰达?查普曼 Brenda Chapman (id:1280481)
       泰迪·牛顿 Teddy Newton (id:1293142)
       保罗·伊丁 Paul Eiding (id:1088278)
       托尼·弗希勒 Tony Fucile (id:1284287)
       雪莉·琳恩 Sherry Lynn (id:1348618)
       乔纳斯·里维拉 Jonas Rivera (id:1295712)
       Denise Ream Denise Ream (id:1295324)
       迈克·吉亚奇诺 Michael Giacchino (id:1027937)
       凯文·诺尔廷 Kevin Nolting (id:1293321)
       Kevin Reher Kevin Reher (id:1295391)
       Natalie Lyon Natalie Lyon (id:1312081)
       埃里康·卡萨罗萨 Enrico Casarosa (id:1320935)
       瑞奇·尼尔瓦 Ricky Nierva (id:1293176)
       安德鲁·吉梅内斯 Andrew Jimenez (id:1305449)
       威廉·里维斯 William Reeves (id:1295389)
       Paul Aichele Paul Aichele (id:1276882)
       Brian Tindall Brian Tindall (id:1311057)
       Gary Bruins Gary Bruins (id:1311053)
       Konishi Sonoko Konishi Sonoko (id:1298062)
       Enrique Vila Enrique Vila (id:1300057)
       Pamela J. Choy Pamela J. Choy (id:1303351)
       基斯·丹尼尔·克隆 Keith Daniel Klohn (id:1303967)
       Carmen Ngai Carmen Ngai (id:1305326)
       乔恩·雷施 Jon Reisch (id:1311118)
       Darwyn Peachey Darwyn Peachey (id:1294154)
       Alexis Angelidis Alexis Angelidis (id:1312482)
       Tom Sanocki Tom Sanocki (id:1311047)
       比尔·瓦特拉尔 Bill Watral (id:1312167)
       Chen Shen Chen Shen (id:1312109)
       Steve May Steve May (id:1291355)
       Tolga Goktekin Tolga Goktekin (id:1311676)
       埃里克·弗罗埃姆林 Eric Froemling (id:1311588)

◎简  介
  小男孩卡尔(Carl Fredricksen)怀揣着对于冒险的热爱偶遇假小子艾丽(Ellie),而艾丽把整个屋子当成一艘大飞船游戏居然使他对这个女孩子有些着迷,相同的爱好最终使两个人成为了一生的爱侣。                                       
                                    他们有一个梦想,那就是有朝一日要去南美洲的“仙境瀑布”探险,但直到艾丽去世,这个梦想也未能实现。终于有一天,曾经专卖气球的老人卡尔居然用五颜六色的气球拽着他的房子飞上了天空,他决定要去实现他们未曾实现的梦想。令卡尔始料不及的是,门廊居然搭上了一个自称是“荒野开拓者”的小男孩小罗(Russell),小罗的喋喋不休让卡尔对这个小胖墩格外讨厌。                                       
                                    一老一少在飞行中经过了千难万险终于看到了传说中的“仙境瀑布”,在相处过程中卡尔发现小罗其实是个惹人怜爱的孩子。在步行穿越一座森林时,他们遇到了不会飞的大鸟凯文(Kevin)和一只会说话的狗狗逗逗(Dug),让老人惊讶...

◎获奖情况 (共33项)
  第82届奥斯卡金像奖 (2010)
  最佳影片(提名)
   └──乔纳斯·里维拉 (id:1295712)
  最佳原创剧本(提名)
  最佳动画长片
   └──彼特·道格特 (id:1022803)
  最佳音效剪辑(提名)
  最佳原创配乐
   └──迈克·吉亚奇诺 (id:1027937)

  第66届威尼斯电影节 (2009)
  未来电影数字奖-特别提及
   └──彼特·道格特 (id:1022803)

  第67届金球奖 (2010)
  电影类 最佳动画长片
  电影类 最佳原创配乐
   └──迈克·吉亚奇诺 (id:1027937)

  第37届动画安妮奖 (2010)
  最佳动画长片
  最佳导演
   └──彼特·道格特 (id:1022803)
  最佳编剧(提名)
  最佳配乐(提名)
   └──迈克·吉亚奇诺 (id:1027937)
  最佳分镜(提名)
  最佳动画角色(提名)
  最佳角色设计(提名)
  最佳动画效果(提名)
   └──埃里克·弗罗埃姆林 (id:1311588)

  第75届纽约影评人协会奖 (2009)
  最佳动画片(提名)

  第10届美国电影学会奖 (2009)
  年度佳片

  第8届华盛顿影评人协会奖 (2009)
  最佳影片(提名)
  最佳原创剧本(提名)
  最佳动画片

  第14届圣地亚哥影评人协会奖 (2009)
  最佳动画片
  最佳配乐(提名)
   └──迈克·吉亚奇诺 (id:1027937)

  第22届芝加哥影评人协会奖 (2009)
  最佳原创剧本(提名)
   └──鲍勃·彼德森 (id:1294383)
  最佳动画片
  最佳原创配乐
   └──迈克·吉亚奇诺 (id:1027937)

  第43届堪萨斯影评人协会奖 (2010)
  最佳动画片

  第9届凤凰城影评人协会奖 (2009)
  最佳原创剧本
  最佳原创配乐
   └──迈克·吉亚奇诺 (id:1027937)
  最佳动画片

  第18届东南影评人协会奖 (2009)
  最佳影片(提名)
  最佳动画片

  第11届美国青少年选择奖 (2009)
  最佳暑期喜剧片

  1. ##### MediaInfo ######
  2. General
  3. Unique ID                                : 59637479427976793495905793747895239119 (0x2CDDC2C01B406E3875581F59270CC1CF)
  4. Complete name                            : Up.2009.UHD.BluRay.2160p.x265.10bit.HDR.4Audios-MiniHD.mkv
  5. Format                                   : Matroska
  6. Format version                           : Version 4
  7. File size                                : 13.9 GiB
  8. Duration                                 : 1 h 36 min
  9. Overall bit rate mode                    : Variable
  10. Overall bit rate                         : 20.6 Mb/s
  11. Encoded date                             : UTC 2022-02-26 13:53:15
  12. Writing application                      : mkvmerge v62.0.0 ('Apollo') 64-bit
  13. Writing library                          : libebml v1.4.2 + libmatroska v1.6.4
  14. Video
  15. ID                                       : 1
  16. Format                                   : HEVC
  17. Format/Info                              : High Efficiency Video Coding
  18. Format profile                           : Main 10@L5.1@High
  19. HDR format                               : SMPTE ST 2086, HDR10 compatible
  20. Codec ID                                 : V_MPEGH/ISO/HEVC
  21. Duration                                 : 1 h 36 min
  22. Bit rate                                 : 11.7 Mb/s
  23. Width                                    : 3 840 pixels
  24. Height                                   : 2 160 pixels
  25. Display aspect ratio                     : 16:9
  26. Frame rate mode                          : Constant
  27. Frame rate                               : 23.976 (24000/1001/53354) FPS
  28. Color space                              : YUV
  29. Chroma subsampling                       : 4:2:0
  30. Bit depth                                : 10 bits
  31. Bits/(Pixel*Frame)                       : 0.059
  32. Stream size                              : 7.88 GiB (57%)
  33. Writing library                          : x265 3.2+7-gb291a1c95+26:[Windows][#Erg`Djh#][@Yuuki] made by @Dongfangbubai
  34. Encoding settings                        : rc=crf / crf=18.0000 / qcomp=0.70 / qpstep=4 / stats-write=0 / stats-read=0 / vbv-maxrate=160000 / vbv-bufsize=160000 / vbv-init=0.9 / crf-max=0.0 / crf-min=0.0 / no-lossless / no-cu-lossless / aq-mode=1 / aq-strength=0.80 / cbqpoffs=-3 / crqpoffs=-3 / ipratio=1.40 / pbratio=1.30 / psy-rd=2.00 / psy-rdoq=3.00 / deblock=-1:-1 / ref=5 / limit-refs=0 / no-limit-modes / bframes=8 / b-adapt=2 / bframe-bias=0 / b-pyramid / b-intra / weightp / weightb / min-keyint=23 / max-keyint=240 / rc-lookahead=60 / gop-lookahead=0 / NTMzNTQ=uuDQuD2mJt9fsCf / scenecut=40 / radl=0 / max-cu-size=32 / min-cu-size=8 / me=3 / subme=4 / merange=25 / rdoq-level=2 / rd=4 / rdpenalty=1 / dynamic-rd=0.00 / no-rd-refine / ----- / no-cutree / no-sao / no-rect / no-amp / no-open-gop / wpp / pmode / pme / no-psnr / no-ssim / nr-intra=0 / nr-inter=0 / no-constrained-intra / no-strong-intra-smoothing / max-tu-size=32 / tu-inter-depth=2 / tu-intra-depth=2 / limit-tu=0 / qg-size=32 / qpmax=69 / qpmin=0 / ----- / cpuid=533541111039 / frame-threads=6 / numa-pools=54,- / log-level=2 / input-csp=1 / input-res=3840x2160 / interlace=0 / level-idc=0 / high-tier=1 / uhd-bd=0 / no-allow-non-conformance / no-repeat-headers / no-aud / hrd / info / hash=0 / no-temporal-layers / lookahead-slices=0 / no-splice / no-intra-refresh / no-ssim-rd / signhide / no-tskip / max-merge=3 / temporal-mvp / no-hme / no-analyze-src-pics / no-sao-non-deblock / selective-sao=0 / no-early-skip / no-rskip / no-fast-intra / no-tskip-fast / no-splitrd-skip / zone-count=0 / no-strict-cbr / no-rc-grain / no-const-vbv / sar=0 / overscan=0 / videoformat=5 / range=0 / colorprim=9 / transfer=16 / colormatrix=9 / chromaloc=0 / display-window=0 / master-display=G(13250,34500)B(7500,3000)R(34000,16000)WP(15635,16450)L(10000000,0) / cll=0,0 / min-luma=0 / max-luma=1023 / log2-max-poc-lsb=8 / vui-timing-info / vui-hrd-info / slices=1 / no-opt-qp-pps / no-opt-ref-list-length-pps / no-multi-pass-opt-rps / scenecut-bias=0.05 / no-opt-cu-delta-qp / no-aq-motion / hdr / hdr-opt / no-dhdr10-opt / no-idr-recovery-sei / analysis-reuse-level=5 / scale-factor=0 / refine-intra=0 / refine-inter=0 / refine-mv=1 / refine-ctu-distortion=0 / no-limit-sao / ctu-info=0 / no-lowpass-dct / refine-analysis-type=0 / copy-pic=1 / max-ausize-factor=1.0 / no-dynamic-refine / no-single-sei / no-hevc-aq / no-svt / no-field / qp-adaptation-range=1.00
  35. Default                                  : Yes
  36. Forced                                   : No
  37. Color range                              : Limited
  38. Color primaries                          : BT.2020
  39. Transfer characteristics                 : PQ
  40. Matrix coefficients                      : BT.2020 non-constant
  41. Mastering display color primaries        : Display P3
  42. Mastering display luminance              : min: 0.0000 cd/m2, max: 1000 cd/m2
  43. Audio #1
  44. ID                                       : 2
  45. Format                                   : MLP FBA 16-ch
  46. Format/Info                              : Meridian Lossless Packing FBA with 16-channel presentation
  47. Commercial name                          : Dolby TrueHD with Dolby Atmos
  48. Codec ID                                 : A_TRUEHD
  49. Duration                                 : 1 h 36 min
  50. Bit rate mode                            : Variable
  51. Bit rate                                 : 6 844 kb/s
  52. Maximum bit rate                         : 8 307 kb/s
  53. Channel(s)                               : 8 channels
  54. Channel layout                           : L R C LFE Ls Rs Lb Rb
  55. Sampling rate                            : 48.0 kHz
  56. Frame rate                               : 1 200.000 FPS (40 SPF)
  57. Compression mode                         : Lossless
  58. Stream size                              : 4.60 GiB (33%)
  59. Title                                    : 英语
  60. Language                                 : English
  61. Default                                  : Yes
  62. Forced                                   : No
  63. Number of dynamic objects                : 13
  64. Bed channel count                        : 1 channel
  65. Bed channel configuration                : LFE
  66. Audio #2
  67. ID                                       : 3
  68. Format                                   : AC-3
  69. Format/Info                              : Audio Coding 3
  70. Commercial name                          : Dolby Digital
  71. Codec ID                                 : A_AC3
  72. Duration                                 : 1 h 36 min
  73. Bit rate mode                            : Constant
  74. Bit rate                                 : 640 kb/s
  75. Channel(s)                               : 6 channels
  76. Channel layout                           : L R C LFE Ls Rs
  77. Sampling rate                            : 48.0 kHz
  78. Frame rate                               : 31.250 FPS (1536 SPF)
  79. Compression mode                         : Lossy
  80. Delay relative to video                  : 650 ms
  81. Stream size                              : 440 MiB (3%)
  82. Title                                    : 上译国语
  83. Language                                 : Chinese
  84. Service kind                             : Complete Main
  85. Default                                  : No
  86. Forced                                   : No
  87. Audio #3
  88. ID                                       : 4
  89. Format                                   : AC-3
  90. Format/Info                              : Audio Coding 3
  91. Commercial name                          : Dolby Digital
  92. Codec ID                                 : A_AC3
  93. Duration                                 : 1 h 36 min
  94. Bit rate mode                            : Constant
  95. Bit rate                                 : 640 kb/s
  96. Channel(s)                               : 6 channels
  97. Channel layout                           : L R C LFE Ls Rs
  98. Sampling rate                            : 48.0 kHz
  99. Frame rate                               : 31.250 FPS (1536 SPF)
  100. Compression mode                         : Lossy
  101. Delay relative to video                  : 800 ms
  102. Stream size                              : 442 MiB (3%)
  103. Title                                    : 台配国语
  104. Language                                 : Chinese
  105. Service kind                             : Complete Main
  106. Default                                  : No
  107. Forced                                   : No
  108. Audio #4
  109. ID                                       : 5
  110. Format                                   : AC-3
  111. Format/Info                              : Audio Coding 3
  112. Commercial name                          : Dolby Digital
  113. Codec ID                                 : A_AC3
  114. Duration                                 : 1 h 36 min
  115. Bit rate mode                            : Constant
  116. Bit rate                                 : 640 kb/s
  117. Channel(s)                               : 6 channels
  118. Channel layout                           : L R C LFE Ls Rs
  119. Sampling rate                            : 48.0 kHz
  120. Frame rate                               : 31.250 FPS (1536 SPF)
  121. Compression mode                         : Lossy
  122. Delay relative to video                  : 800 ms
  123. Stream size                              : 442 MiB (3%)
  124. Title                                    : 粤语
  125. Language                                 : Chinese
  126. Service kind                             : Complete Main
  127. Default                                  : No
  128. Forced                                   : No
  129. Text #1
  130. ID                                       : 6
  131. Format                                   : PGS
  132. Muxing mode                              : zlib
  133. Codec ID                                 : S_HDMV/PGS
  134. Codec ID/Info                            : Picture based subtitle format used on BDs/HD-DVDs
  135. Duration                                 : 1 h 27 min
  136. Bit rate                                 : 21.2 kb/s
  137. Count of elements                        : 1728
  138. Stream size                              : 13.3 MiB (0%)
  139. Title                                    : 上译简中
  140. Language                                 : Chinese
  141. Default                                  : Yes
  142. Forced                                   : No
  143. Text #2
  144. ID                                       : 7
  145. Format                                   : PGS
  146. Muxing mode                              : zlib
  147. Codec ID                                 : S_HDMV/PGS
  148. Codec ID/Info                            : Picture based subtitle format used on BDs/HD-DVDs
  149. Duration                                 : 1 h 27 min
  150. Bit rate                                 : 21.0 kb/s
  151. Count of elements                        : 2348
  152. Stream size                              : 13.2 MiB (0%)
  153. Title                                    : 台配简中
  154. Language                                 : Chinese
  155. Default                                  : No
  156. Forced                                   : No
  157. Text #3
  158. ID                                       : 8
  159. Format                                   : PGS
  160. Muxing mode                              : zlib
  161. Codec ID                                 : S_HDMV/PGS
  162. Codec ID/Info                            : Picture based subtitle format used on BDs/HD-DVDs
  163. Duration                                 : 1 h 31 min
  164. Bit rate                                 : 79.5 kb/s
  165. Count of elements                        : 5644
  166. Stream size                              : 51.8 MiB (0%)
  167. Title                                    : 简中特效
  168. Language                                 : Chinese
  169. Default                                  : No
  170. Forced                                   : No
  171. Text #4
  172. ID                                       : 9
  173. Format                                   : PGS
  174. Muxing mode                              : zlib
  175. Codec ID                                 : S_HDMV/PGS
  176. Codec ID/Info                            : Picture based subtitle format used on BDs/HD-DVDs
  177. Duration                                 : 1 h 31 min
  178. Bit rate                                 : 123 kb/s
  179. Count of elements                        : 5644
  180. Stream size                              : 80.1 MiB (1%)
  181. Title                                    : 双语特效
  182. Language                                 : Chinese
  183. Default                                  : No
  184. Forced                                   : No
  185. Text #5
  186. ID                                       : 10
  187. Format                                   : PGS
  188. Muxing mode                              : zlib
  189. Codec ID                                 : S_HDMV/PGS
  190. Codec ID/Info                            : Picture based subtitle format used on BDs/HD-DVDs
  191. Duration                                 : 1 h 35 min
  192. Bit rate                                 : 33.7 kb/s
  193. Count of elements                        : 2400
  194. Stream size                              : 23.1 MiB (0%)
  195. Title                                    : 英文
  196. Language                                 : English
  197. Default                                  : No
  198. Forced                                   : No
  199. Menu
  200. 00:00:00.000                             : en:第 01 章
  201. 00:06:20.588                             : en:第 02 章
  202. 00:13:17.004                             : en:第 03 章
  203. 00:22:00.027                             : en:第 04 章
  204. 00:30:02.342                             : en:第 05 章
  205. 00:37:01.594                             : en:第 06 章
  206. 00:43:31.984                             : en:第 07 章
  207. 00:51:13.612                             : en:第 08 章
  208. 01:00:06.603                             : en:第 09 章
  209. 01:07:50.483                             : en:第 10 章
  210. 01:18:07.057                             : en:第 11 章
  211. 01:25:28.665                             : en:第 12 章





此处一般会放置磁力链或种子下载链接,不过此链接需要注册会员才能看到,点击“立即注册”
磁力链下载【下载链接仅对注册会员开放,登陆后可见】
BT9527电影天堂 1、BT9527电影天堂提供的BT文件均来源于互联网抓取,只供网友学习交流、技术提升使用。
2、我们遵守BitTorrent点对点协议原则,任何版权问题请联系原资源发布商,我们不处理任何版权纠纷,谢谢!如有争议请联系邮箱:BT9527#hotmail.com(#换成@)
3、如果您发现某页面或地址有错误,请联系站长邮箱BT9527#hotmail.com(#换成@),我们会尽快处理。您的热心是对BT9527电影天堂最大的支持。
4、本站建议去正规影院观看电影以支持电影行业发展。
最新回复 (0)

你可以在 登录 or 注册 后,对此帖发表评论!

返回
发新帖