午夜守门人[中文字幕].The.Night.Porter.1974.2160p.SDR.UHD.BluRay.DTS.x265-10bit-ENTHD 14.92GB

版主小s 18天前 48

✔资源类型:BD-4K   ✔电影年份:更 早   ✔电影地区:其他   ✔电影分类:剧情

◎译  名 午夜守门人 / 狂爱(台) / 狂恋 / 魂断多瑙河 / The Night Porter
◎片  名 Il portiere di notte
◎年  代 1974
◎产  地 意大利
◎类  别 剧情
◎语  言 英语
◎上映日期 1974-04-03
◎IMDb链接 https://www.imdb.com/title/tt0071910/
◎豆瓣评分 7.3/10 (14917人评价)
◎豆瓣链接 https://movie.douban.com/subject/1304687/
◎片  长 118 分钟
◎导  演 莉莉安娜·卡瓦尼 Liliana Cavani (id:1016598)
◎编  剧 莉莉安娜·卡瓦尼 Liliana Cavani (id:1016598)
       芭芭拉·阿尔贝蒂 Barbara Alberti (id:1001624)
       阿梅代奥·帕加尼 Amedeo Pagani (id:1293794)
◎演  员 德克·博加德 Dirk Bogarde (id:1000250)
       夏洛特·兰普林 Charlotte Rampling (id:1007020)
       菲利普·勒鲁瓦 Philippe Leroy (id:1054673)
       加布里埃尔·费泽蒂 Gabriele Ferzetti (id:1032394)
       Giuseppe Addobbati Giuseppe Addobbati (id:1354263)
       伊莎·米兰达 Isa Miranda (id:1009925)
       Nino Bignamini Nino Bignamini (id:1354264)
       Marino Masé Marino Masé (id:1349742)
       阿梅代奥·阿莫迪奥 Amedeo Amodio (id:1354265)
       Piero Vida Piero Vida (id:1151756)
       杰弗里·科普尔斯顿 Geoffrey Copleston (id:1074562)
       Manfred Freyberger Manfred Freyberger (id:1087025)
       Ugo Cardea Ugo Cardea (id:1354266)
       Hilda Gunther Hilda Gunther (id:1354267)
       诺拉·里奇 Nora Ricci (id:1148713)
       Piero Mazzinghi Piero Mazzinghi (id:1356368)
       马里诺梅瑟 Marino Masé (id:1121800)
       Alfio Contini Alfio Contini (id:1051525)
       奥斯瓦尔多·德西代里 Osvaldo Desideri (id:1082355)
       皮埃罗·托西 Piero Tosi (id:1003609)
       Cesare Paciotti Cesare Paciotti (id:1293789)
       Mario Garriba Mario Garriba (id:1098496)

◎简  介
  另类的爱情故事,肢体纠结的情色语言。                                    
                                1957年,原纳粹军官Max(Dirk  Bogarde 饰)隐姓埋名,在维也纳一家酒店当午夜守门人。某日,他遇到著名指挥家的妻子Lucia(Charlotte Rampling  饰),往事排山倒海而来。                                    
                                原来,Lucia是纳粹集中营的幸存者,当年是Max的性奴,也是他的情人,Max对她一直念念不忘。                                    
                                Max趁Lucia外出演出,和Lucia重逢,随即将她接到了自己的公寓,二人迅速恢复了往日的关系。                                    
                                于此同时,Max所属纳粹余孽小团体也在寻找Lucia,想除掉这个有力的证人,Lucia的丈夫也因为妻子失踪而报警。Max走投无路,只能囤积了大量食品在公寓里,和Lucia足不出户,靠性爱彼此安慰,忘记现实的困境,等待终将来临的救赎或者毁灭。
  1. ##### MediaInfo ######
  2. General
  3. Unique ID                                : 221958174800094816435700539767156980324 (0xA6FB96EB1AA66BD6C23DDE398F593A64)
  4. Complete name                            : The.Night.Porter.1974.2160p.SDR.UHD.BluRay.DTS.x265-10bit-ENTHD.mkv
  5. Format                                   : Matroska
  6. Format version                           : Version 4
  7. File size                                : 14.9 GiB
  8. Duration                                 : 1 h 58 min
  9. Overall bit rate                         : 18.1 Mb/s
  10. Movie name                               : The Night Porter 1974 2160p SDR UHD BluRay DTS x265-10bit-HDS
  11. Encoded date                             : UTC 2022-06-14 13:17:00
  12. Writing application                      : mkvmerge v67.0.0 ('Under Stars') 64-bit
  13. Writing library                          : libebml v1.4.2 + libmatroska v1.6.4
  14. Video
  15. ID                                       : 1
  16. Format                                   : HEVC
  17. Format/Info                              : High Efficiency Video Coding
  18. Format profile                           : Main 10@L6.1@High
  19. Codec ID                                 : V_MPEGH/ISO/HEVC
  20. Duration                                 : 1 h 58 min
  21. Bit rate                                 : 16.5 Mb/s
  22. Width                                    : 3 840 pixels
  23. Height                                   : 2 076 pixels
  24. Display aspect ratio                     : 1.85:1
  25. Frame rate mode                          : Constant
  26. Frame rate                               : 23.976 (24000/1001/53354) FPS
  27. Color space                              : YUV
  28. Chroma subsampling                       : 4:2:0
  29. Bit depth                                : 10 bits
  30. Bits/(Pixel*Frame)                       : 0.086
  31. Stream size                              : 13.6 GiB (91%)
  32. Title                                    : @HDSky
  33. Writing library                          : x265 - H.265/HEVC codec
  34. Default                                  : Yes
  35. Forced                                   : No
  36. Audio
  37. ID                                       : 2
  38. Format                                   : DTS
  39. Format/Info                              : Digital Theater Systems
  40. Codec ID                                 : A_DTS
  41. Duration                                 : 1 h 58 min
  42. Bit rate mode                            : Constant
  43. Bit rate                                 : 1 509 kb/s
  44. Channel(s)                               : 2 channels
  45. Channel layout                           : L R
  46. Sampling rate                            : 48.0 kHz
  47. Frame rate                               : 93.750 FPS (512 SPF)
  48. Bit depth                                : 24 bits
  49. Compression mode                         : Lossy
  50. Stream size                              : 1.25 GiB (8%)
  51. Title                                    : English
  52. Language                                 : English
  53. Default                                  : Yes
  54. Forced                                   : No
  55. Text #1
  56. ID                                       : 3
  57. Format                                   : PGS
  58. Muxing mode                              : zlib
  59. Codec ID                                 : S_HDMV/PGS
  60. Codec ID/Info                            : Picture based subtitle format used on BDs/HD-DVDs
  61. Duration                                 : 1 h 49 min
  62. Bit rate                                 : 16.7 kb/s
  63. Count of elements                        : 1533
  64. Stream size                              : 13.1 MiB (0%)
  65. Title                                    : CHS
  66. Language                                 : Chinese
  67. Default                                  : Yes
  68. Forced                                   : No
  69. Text #2
  70. ID                                       : 4
  71. Format                                   : PGS
  72. Muxing mode                              : zlib
  73. Codec ID                                 : S_HDMV/PGS
  74. Codec ID/Info                            : Picture based subtitle format used on BDs/HD-DVDs
  75. Duration                                 : 1 h 49 min
  76. Bit rate                                 : 17.1 kb/s
  77. Count of elements                        : 1533
  78. Stream size                              : 13.4 MiB (0%)
  79. Title                                    : CHT
  80. Language                                 : Chinese
  81. Default                                  : Yes
  82. Forced                                   : No
  83. Text #3
  84. ID                                       : 5
  85. Format                                   : PGS
  86. Muxing mode                              : zlib
  87. Codec ID                                 : S_HDMV/PGS
  88. Codec ID/Info                            : Picture based subtitle format used on BDs/HD-DVDs
  89. Duration                                 : 1 h 49 min
  90. Bit rate                                 : 30.0 kb/s
  91. Count of elements                        : 1533
  92. Stream size                              : 23.5 MiB (0%)
  93. Title                                    : CHS&ENG
  94. Language                                 : Chinese
  95. Default                                  : Yes
  96. Forced                                   : No
  97. Text #4
  98. ID                                       : 6
  99. Format                                   : PGS
  100. Muxing mode                              : zlib
  101. Codec ID                                 : S_HDMV/PGS
  102. Codec ID/Info                            : Picture based subtitle format used on BDs/HD-DVDs
  103. Duration                                 : 1 h 49 min
  104. Bit rate                                 : 30.4 kb/s
  105. Count of elements                        : 1533
  106. Stream size                              : 23.8 MiB (0%)
  107. Title                                    : CHT&ENG
  108. Language                                 : Chinese
  109. Default                                  : Yes
  110. Forced                                   : No
  111. Menu
  112. 00:00:00.000                             : en:第 01 章
  113. 00:09:40.580                             : en:第 02 章
  114. 00:18:52.131                             : en:第 03 章
  115. 00:29:14.753                             : en:第 04 章
  116. 00:38:10.288                             : en:第 05 章
  117. 00:48:54.932                             : en:第 06 章
  118. 00:59:14.551                             : en:第 07 章
  119. 01:08:03.079                             : en:第 08 章
  120. 01:18:03.679                             : en:第 09 章
  121. 01:28:37.312                             : en:第 10 章
  122. 01:38:52.927                             : en:第 11 章
  123. 01:49:08.542                             : en:第 12 章





此处一般会放置磁力链或种子下载链接,不过此链接需要注册会员才能看到,点击“立即注册”
磁力链下载【下载链接仅对注册会员开放,登陆后可见】
BT9527电影天堂 1、BT9527电影天堂提供的BT文件均来源于互联网抓取,只供网友学习交流、技术提升使用。
2、我们遵守BitTorrent点对点协议原则,任何版权问题请联系原资源发布商,我们不处理任何版权纠纷,谢谢!如有争议请联系邮箱:BT9527#hotmail.com(#换成@)
3、如果您发现某页面或地址有错误,请联系站长邮箱BT9527#hotmail.com(#换成@),我们会尽快处理。您的热心是对BT9527电影天堂最大的支持。
4、本站建议去正规影院观看电影以支持电影行业发展。
最新回复 (0)

你可以在 登录 or 注册 后,对此帖发表评论!

返回
发新帖