别逼我动手[国语配音/中文字幕].Pia.Pia.Pia.2022.2160p.WEB-DL.H265.AAC-HDBWEB 1.53GB

版主小s 14天前 59

✔资源类型:4K   ✔电影年份:2022   ✔电影地区:大陆   ✔电影分类:喜剧

◎译  名 别逼我动手 / 东北特工队
◎年  代 2022
◎产  地 中国大陆
◎类  别 喜剧 / 爱情
◎语  言 汉语普通话
◎上映日期 2022-06-16(中国大陆网络)
◎IMDb链接 https://www.imdb.com/title//
◎豆瓣链接 https://movie.douban.com/subject/35917101/
◎演  员 王小利 Xiaoli Wang (id:1313910)
       莫小奇 Monica Mok (id:1275369)
       王亮 Liang Wang (id:1383945)
       张大大 Dada Zhang (id:1347886)

◎简  介
  电影讲述了陷入中年危机的二人转演员刘光,面对婚姻破灭和残酷的现实借酒消愁,某天醒来成为一名拥有超能力的特工,谁料妻子段美娟也隐藏特工身份。
  1. ##### MediaInfo ######
  2. General
  3. Complete name                            : 别逼我动手.Pia.Pia.Pia.2022.2160p.WEB-DL.H265.AAC-HDBWEB.mp4
  4. Format                                   : MPEG-4
  5. Format profile                           : Base Media
  6. Codec ID                                 : isom (isom/iso2/mp41)
  7. File size                                : 1.53 GiB
  8. Duration                                 : 1 h 30 min
  9. Overall bit rate mode                    : Variable
  10. Overall bit rate                         : 2 428 kb/s
  11. Writing application                      : Lavf58.17.103
  12. Video
  13. ID                                       : 1
  14. Format                                   : HEVC
  15. Format/Info                              : High Efficiency Video Coding
  16. Format profile                           : Main@L5@Main
  17. Codec ID                                 : hev1
  18. Codec ID/Info                            : High Efficiency Video Coding
  19. Duration                                 : 1 h 30 min
  20. Bit rate                                 : 2 296 kb/s
  21. Width                                    : 3 840 pixels
  22. Height                                   : 1 632 pixels
  23. Display aspect ratio                     : 2.35:1
  24. Frame rate mode                          : Variable
  25. Frame rate                               : 24.000 FPS
  26. Minimum frame rate                       : 23.994 FPS
  27. Maximum frame rate                       : 24.006 FPS
  28. Color space                              : YUV
  29. Chroma subsampling                       : 4:2:0
  30. Bit depth                                : 8 bits
  31. Bits/(Pixel*Frame)                       : 0.015
  32. Stream size                              : 1.44 GiB (95%)
  33. Color range                              : Limited
  34. Color primaries                          : BT.709
  35. Transfer characteristics                 : BT.709
  36. Matrix coefficients                      : BT.709
  37. Codec configuration box                  : hvcC
  38. Audio
  39. ID                                       : 2
  40. Format                                   : AAC LC
  41. Format/Info                              : Advanced Audio Codec Low Complexity
  42. Codec ID                                 : mp4a-40-2
  43. Duration                                 : 1 h 30 min
  44. Bit rate mode                            : Variable
  45. Bit rate                                 : 125 kb/s
  46. Maximum bit rate                         : 128 kb/s
  47. Channel(s)                               : 2 channels
  48. Channel layout                           : L R
  49. Sampling rate                            : 48.0 kHz
  50. Frame rate                               : 46.875 FPS (1024 SPF)
  51. Compression mode                         : Lossy
  52. Stream size                              : 80.7 MiB (5%)
  53. Default                                  : Yes
  54. Alternate group                          : 1





此处一般会放置磁力链或种子下载链接,不过此链接需要注册会员才能看到,点击“立即注册”
磁力链下载【下载链接仅对注册会员开放,登陆后可见】
BT9527电影天堂 1、BT9527电影天堂提供的BT文件均来源于互联网抓取,只供网友学习交流、技术提升使用。
2、我们遵守BitTorrent点对点协议原则,任何版权问题请联系原资源发布商,我们不处理任何版权纠纷,谢谢!如有争议请联系邮箱:BT9527#hotmail.com(#换成@)
3、如果您发现某页面或地址有错误,请联系站长邮箱BT9527#hotmail.com(#换成@),我们会尽快处理。您的热心是对BT9527电影天堂最大的支持。
4、本站建议去正规影院观看电影以支持电影行业发展。
最新回复 (0)

你可以在 登录 or 注册 后,对此帖发表评论!

返回
发新帖