歌、舞、伎:生田斗真[中文字幕].Sing.Dance.Act.Kabuki.featuring.Toma.Ikuta.2022.JAPANESE.1080p.NF.WEBRip.DDP5.1.x264-SMURF 2.40GB

版主小s 14天前 146




◎译  名 歌、舞、伎:生田斗真 / 生田斗真纪录片~挑战~
◎片  名 生田斗真ドキュメンタリー ~挑む~
◎年  代 2022
◎产  地 日本
◎类  别 纪录片
◎语  言 日语
◎上映日期 2022-06-16(日本网络)
◎IMDb链接 https://www.imdb.com/title/tt15227100/
◎豆瓣链接 https://movie.douban.com/subject/35566789/
◎演  员 生田斗真 T?ma Ikuta (id:1180142)
       尾上松也 Matsuya Onoe (id:1363342)
       小栗旬 Shun Oguri (id:1014229)
       中村七之助 Shichinosuke Nakamura (id:1045437)

◎简  介
  演员生田斗真为何愿意大胆挑战日本传统艺术“歌舞伎”?这部纪实纪录片跟着生田斗真踏进新歌舞伎的世界,同时细细着墨他和演员尾上松也长达 20 年的友情。                                    
                                Netflix 纪录片《歌、舞、伎:生田斗真》 将于6月16日星期四全球首播,Netflix独家。

  1. Video
  2. ID                                       : 1
  3. Format                                   : AVC
  4. Format/Info                              : Advanced Video Codec
  5. Format profile                           : Main@L4
  6. Format settings                          : CABAC / 3 Ref Frames
  7. Format settings, CABAC                   : Yes
  8. Format settings, Reference frames        : 3 frames
  9. Codec ID                                 : V_MPEG4/ISO/AVC
  10. Duration                                 : 1 h 27 min
  11. Bit rate mode                            : Variable
  12. Bit rate                                 : 3 267 kb/s
  13. Nominal bit rate                         : 4 078 kb/s
  14. Maximum bit rate                         : 6 330 kb/s
  15. Width                                    : 1 920 pixels
  16. Height                                   : 1 080 pixels
  17. Display aspect ratio                     : 16:9
  18. Frame rate mode                          : Constant
  19. Frame rate                               : 23.976 (24000/1001/53354) FPS
  20. Color space                              : YUV
  21. Chroma subsampling                       : 4:2:0
  22. Bit depth                                : 8 bits
  23. Scan type                                : Progressive
  24. Bits/(Pixel*Frame)                       : 0.066
  25. Stream size                              : 2.00 GiB (83%)
  26. Writing library                          : x264 core 148 r2727 7d026e8
  27. Encoding settings                        : cabac=1 / ref=3 / deblock=1:0:0 / analyse=0x1:0x111 / me=umh / subme=10 / psy=1 / psy_rd=1.00:0.00 / mixed_ref=1 / me_range=24 / chroma_me=1 / trellis=2 / 8x8dct=0 / cqm=0 / deadzone=21,11 / fast_pskip=1 / chroma_qp_offset=-2 / threads=6 / lookahead_threads=1 / sliced_threads=0 / nr=0 / decimate=1 / interlaced=0 / NTMzNTQ= / bluray_compat=0 / stitchable=1 / constrained_intra=0 / bframes=2 / b_pyramid=0 / b_adapt=2 / b_bias=0 / direct=3 / weightb=1 / open_gop=0 / weightp=2 / keyint=250 / keyint_min=23 / scenecut=0 / intra_refresh=0 / rc_lookahead=48 / rc=2pass / mbtree=1 / bitrate=4078 / ratetol=1.0 / qcomp=0.50 / qpmin=6 / qpmax=51 / qpstep=4 / cplxblur=20.0 / qblur=0.5 / vbv_maxrate=6330 / vbv_bufsize=8440 / nal_hrd=vbr / filler=0 / NTMzNTQ=LmsMAP37EqsCpk / ip_ratio=1.40 / aq=1:1.00
  28. Default                                  : Yes
  29. Forced                                   : No

  30. Audio
  31. ID                                       : 2
  32. Format                                   : E-AC-3
  33. Format/Info                              : Enhanced AC-3
  34. Commercial name                          : Dolby Digital Plus
  35. Codec ID                                 : A_EAC3
  36. Duration                                 : 1 h 27 min
  37. Bit rate mode                            : Constant
  38. Bit rate                                 : 640 kb/s
  39. Channel(s)                               : 6 channels
  40. Channel layout                           : L R C LFE Ls Rs
  41. Sampling rate                            : 48.0 kHz
  42. Frame rate                               : 31.250 FPS (1536 SPF)
  43. Compression mode                         : Lossy
  44. Stream size                              : 402 MiB (16%)
  45. Language                                 : Japanese
  46. Service kind                             : Complete Main
  47. Default                                  : Yes
  48. Forced                                   : No

  49. Text #1
  50. ID                                       : 3
  51. Format                                   : UTF-8
  52. Codec ID                                 : S_TEXT/UTF8
  53. Codec ID/Info                            : UTF-8 Plain Text
  54. Duration                                 : 1 h 27 min
  55. Bit rate                                 : 100 b/s
  56. Count of elements                        : 1346
  57. Stream size                              : 64.4 KiB (0%)
  58. Title                                    : SDH
  59. Language                                 : Japanese
  60. Default                                  : No
  61. Forced                                   : No

  62. Text #2
  63. ID                                       : 4
  64. Format                                   : UTF-8
  65. Codec ID                                 : S_TEXT/UTF8
  66. Codec ID/Info                            : UTF-8 Plain Text
  67. Duration                                 : 1 h 27 min
  68. Bit rate                                 : 104 b/s
  69. Count of elements                        : 1147
  70. Stream size                              : 67.3 KiB (0%)
  71. Language                                 : Arabic
  72. Default                                  : No
  73. Forced                                   : No

  74. Text #3
  75. ID                                       : 5
  76. Format                                   : UTF-8
  77. Codec ID                                 : S_TEXT/UTF8
  78. Codec ID/Info                            : UTF-8 Plain Text
  79. Duration                                 : 1 h 27 min
  80. Bit rate                                 : 56 b/s
  81. Count of elements                        : 1147
  82. Stream size                              : 36.2 KiB (0%)
  83. Language                                 : Czech
  84. Default                                  : No
  85. Forced                                   : No

  86. Text #4
  87. ID                                       : 6
  88. Format                                   : UTF-8
  89. Codec ID                                 : S_TEXT/UTF8
  90. Codec ID/Info                            : UTF-8 Plain Text
  91. Duration                                 : 1 h 27 min
  92. Bit rate                                 : 58 b/s
  93. Count of elements                        : 1147
  94. Stream size                              : 37.2 KiB (0%)
  95. Language                                 : Danish
  96. Default                                  : No
  97. Forced                                   : No

  98. Text #5
  99. ID                                       : 7
  100. Format                                   : UTF-8
  101. Codec ID                                 : S_TEXT/UTF8
  102. Codec ID/Info                            : UTF-8 Plain Text
  103. Duration                                 : 1 h 27 min
  104. Bit rate                                 : 58 b/s
  105. Count of elements                        : 1147
  106. Stream size                              : 37.7 KiB (0%)
  107. Language                                 : German
  108. Default                                  : No
  109. Forced                                   : No

  110. Text #6
  111. ID                                       : 8
  112. Format                                   : UTF-8
  113. Codec ID                                 : S_TEXT/UTF8
  114. Codec ID/Info                            : UTF-8 Plain Text
  115. Duration                                 : 1 h 27 min
  116. Bit rate                                 : 92 b/s
  117. Count of elements                        : 1139
  118. Stream size                              : 59.4 KiB (0%)
  119. Language                                 : Greek
  120. Default                                  : No
  121. Forced                                   : No

  122. Text #7
  123. ID                                       : 9
  124. Format                                   : UTF-8
  125. Codec ID                                 : S_TEXT/UTF8
  126. Codec ID/Info                            : UTF-8 Plain Text
  127. Duration                                 : 1 h 27 min
  128. Bit rate                                 : 57 b/s
  129. Count of elements                        : 1146
  130. Stream size                              : 37.0 KiB (0%)
  131. Language                                 : English
  132. Default                                  : No
  133. Forced                                   : No

  134. Text #8
  135. ID                                       : 10
  136. Format                                   : UTF-8
  137. Codec ID                                 : S_TEXT/UTF8
  138. Codec ID/Info                            : UTF-8 Plain Text
  139. Duration                                 : 1 h 27 min
  140. Bit rate                                 : 60 b/s
  141. Count of elements                        : 1147
  142. Stream size                              : 38.8 KiB (0%)
  143. Title                                    : Latin American
  144. Language                                 : Spanish
  145. Default                                  : No
  146. Forced                                   : No

  147. Text #9
  148. ID                                       : 11
  149. Format                                   : UTF-8
  150. Codec ID                                 : S_TEXT/UTF8
  151. Codec ID/Info                            : UTF-8 Plain Text
  152. Duration                                 : 1 h 27 min
  153. Bit rate                                 : 62 b/s
  154. Count of elements                        : 1146
  155. Stream size                              : 40.0 KiB (0%)
  156. Language                                 : Spanish
  157. Default                                  : No
  158. Forced                                   : No

  159. Text #10
  160. ID                                       : 12
  161. Format                                   : UTF-8
  162. Codec ID                                 : S_TEXT/UTF8
  163. Codec ID/Info                            : UTF-8 Plain Text
  164. Duration                                 : 1 h 27 min
  165. Bit rate                                 : 58 b/s
  166. Count of elements                        : 1147
  167. Stream size                              : 37.4 KiB (0%)
  168. Language                                 : Finnish
  169. Default                                  : No
  170. Forced                                   : No

  171. Text #11
  172. ID                                       : 13
  173. Format                                   : UTF-8
  174. Codec ID                                 : S_TEXT/UTF8
  175. Codec ID/Info                            : UTF-8 Plain Text
  176. Duration                                 : 1 h 27 min
  177. Bit rate                                 : 60 b/s
  178. Count of elements                        : 1146
  179. Stream size                              : 38.7 KiB (0%)
  180. Language                                 : French
  181. Default                                  : No
  182. Forced                                   : No

  183. Text #12
  184. ID                                       : 14
  185. Format                                   : UTF-8
  186. Codec ID                                 : S_TEXT/UTF8
  187. Codec ID/Info                            : UTF-8 Plain Text
  188. Duration                                 : 1 h 27 min
  189. Bit rate                                 : 88 b/s
  190. Count of elements                        : 1147
  191. Stream size                              : 56.5 KiB (0%)
  192. Language                                 : Hebrew
  193. Default                                  : No
  194. Forced                                   : No

  195. Text #13
  196. ID                                       : 15
  197. Format                                   : UTF-8
  198. Codec ID                                 : S_TEXT/UTF8
  199. Codec ID/Info                            : UTF-8 Plain Text
  200. Duration                                 : 1 h 27 min
  201. Bit rate                                 : 51 b/s
  202. Count of elements                        : 1139
  203. Stream size                              : 33.2 KiB (0%)
  204. Language                                 : Croatian
  205. Default                                  : No
  206. Forced                                   : No

  207. Text #14
  208. ID                                       : 16
  209. Format                                   : UTF-8
  210. Codec ID                                 : S_TEXT/UTF8
  211. Codec ID/Info                            : UTF-8 Plain Text
  212. Duration                                 : 1 h 27 min
  213. Bit rate                                 : 57 b/s
  214. Count of elements                        : 1137
  215. Stream size                              : 36.7 KiB (0%)
  216. Language                                 : Hungarian
  217. Default                                  : No
  218. Forced                                   : No

  219. Text #15
  220. ID                                       : 17
  221. Format                                   : UTF-8
  222. Codec ID                                 : S_TEXT/UTF8
  223. Codec ID/Info                            : UTF-8 Plain Text
  224. Duration                                 : 1 h 27 min
  225. Bit rate                                 : 59 b/s
  226. Count of elements                        : 1147
  227. Stream size                              : 38.5 KiB (0%)
  228. Language                                 : Indonesian
  229. Default                                  : No
  230. Forced                                   : No

  231. Text #16
  232. ID                                       : 18
  233. Format                                   : UTF-8
  234. Codec ID                                 : S_TEXT/UTF8
  235. Codec ID/Info                            : UTF-8 Plain Text
  236. Duration                                 : 1 h 27 min
  237. Bit rate                                 : 61 b/s
  238. Count of elements                        : 1143
  239. Stream size                              : 39.4 KiB (0%)
  240. Language                                 : Italian
  241. Default                                  : No
  242. Forced                                   : No

  243. Text #17
  244. ID                                       : 19
  245. Format                                   : UTF-8
  246. Codec ID                                 : S_TEXT/UTF8
  247. Codec ID/Info                            : UTF-8 Plain Text
  248. Duration                                 : 1 h 27 min
  249. Bit rate                                 : 73 b/s
  250. Count of elements                        : 1147
  251. Stream size                              : 47.1 KiB (0%)
  252. Language                                 : Korean
  253. Default                                  : No
  254. Forced                                   : No

  255. Text #18
  256. ID                                       : 20
  257. Format                                   : UTF-8
  258. Codec ID                                 : S_TEXT/UTF8
  259. Codec ID/Info                            : UTF-8 Plain Text
  260. Duration                                 : 1 h 27 min
  261. Bit rate                                 : 57 b/s
  262. Count of elements                        : 1147
  263. Stream size                              : 37.1 KiB (0%)
  264. Language                                 : Malay
  265. Default                                  : No
  266. Forced                                   : No

  267. Text #19
  268. ID                                       : 21
  269. Format                                   : UTF-8
  270. Codec ID                                 : S_TEXT/UTF8
  271. Codec ID/Info                            : UTF-8 Plain Text
  272. Duration                                 : 1 h 27 min
  273. Bit rate                                 : 54 b/s
  274. Count of elements                        : 1147
  275. Stream size                              : 35.0 KiB (0%)
  276. Language                                 : Norwegian Bokmal
  277. Default                                  : No
  278. Forced                                   : No

  279. Text #20
  280. ID                                       : 22
  281. Format                                   : UTF-8
  282. Codec ID                                 : S_TEXT/UTF8
  283. Codec ID/Info                            : UTF-8 Plain Text
  284. Duration                                 : 1 h 27 min
  285. Bit rate                                 : 55 b/s
  286. Count of elements                        : 1147
  287. Stream size                              : 35.5 KiB (0%)
  288. Language                                 : Dutch
  289. Default                                  : No
  290. Forced                                   : No

  291. Text #21
  292. ID                                       : 23
  293. Format                                   : UTF-8
  294. Codec ID                                 : S_TEXT/UTF8
  295. Codec ID/Info                            : UTF-8 Plain Text
  296. Duration                                 : 1 h 27 min
  297. Bit rate                                 : 59 b/s
  298. Count of elements                        : 1147
  299. Stream size                              : 38.2 KiB (0%)
  300. Language                                 : Polish
  301. Default                                  : No
  302. Forced                                   : No

  303. Text #22
  304. ID                                       : 24
  305. Format                                   : UTF-8
  306. Codec ID                                 : S_TEXT/UTF8
  307. Codec ID/Info                            : UTF-8 Plain Text
  308. Duration                                 : 1 h 27 min
  309. Bit rate                                 : 61 b/s
  310. Count of elements                        : 1146
  311. Stream size                              : 39.3 KiB (0%)
  312. Title                                    : Brazilian
  313. Language                                 : Portuguese
  314. Default                                  : No
  315. Forced                                   : No

  316. Text #23
  317. ID                                       : 25
  318. Format                                   : UTF-8
  319. Codec ID                                 : S_TEXT/UTF8
  320. Codec ID/Info                            : UTF-8 Plain Text
  321. Duration                                 : 1 h 27 min
  322. Bit rate                                 : 57 b/s
  323. Count of elements                        : 1142
  324. Stream size                              : 37.2 KiB (0%)
  325. Language                                 : Portuguese
  326. Default                                  : No
  327. Forced                                   : No

  328. Text #24
  329. ID                                       : 26
  330. Format                                   : UTF-8
  331. Codec ID                                 : S_TEXT/UTF8
  332. Codec ID/Info                            : UTF-8 Plain Text
  333. Duration                                 : 1 h 27 min
  334. Bit rate                                 : 62 b/s
  335. Count of elements                        : 1140
  336. Stream size                              : 40.1 KiB (0%)
  337. Language                                 : Romanian
  338. Default                                  : No
  339. Forced                                   : No

  340. Text #25
  341. ID                                       : 27
  342. Format                                   : UTF-8
  343. Codec ID                                 : S_TEXT/UTF8
  344. Codec ID/Info                            : UTF-8 Plain Text
  345. Duration                                 : 1 h 27 min
  346. Bit rate                                 : 101 b/s
  347. Count of elements                        : 1144
  348. Stream size                              : 65.3 KiB (0%)
  349. Language                                 : Russian
  350. Default                                  : No
  351. Forced                                   : No

  352. Text #26
  353. ID                                       : 28
  354. Format                                   : UTF-8
  355. Codec ID                                 : S_TEXT/UTF8
  356. Codec ID/Info                            : UTF-8 Plain Text
  357. Duration                                 : 1 h 27 min
  358. Bit rate                                 : 61 b/s
  359. Count of elements                        : 1144
  360. Stream size                              : 39.6 KiB (0%)
  361. Language                                 : Swedish
  362. Default                                  : No
  363. Forced                                   : No

  364. Text #27
  365. ID                                       : 29
  366. Format                                   : UTF-8
  367. Codec ID                                 : S_TEXT/UTF8
  368. Codec ID/Info                            : UTF-8 Plain Text
  369. Duration                                 : 1 h 27 min
  370. Bit rate                                 : 144 b/s
  371. Count of elements                        : 1147
  372. Stream size                              : 93.1 KiB (0%)
  373. Language                                 : Thai
  374. Default                                  : No
  375. Forced                                   : No

  376. Text #28
  377. ID                                       : 30
  378. Format                                   : UTF-8
  379. Codec ID                                 : S_TEXT/UTF8
  380. Codec ID/Info                            : UTF-8 Plain Text
  381. Duration                                 : 1 h 27 min
  382. Bit rate                                 : 57 b/s
  383. Count of elements                        : 1141
  384. Stream size                              : 37.2 KiB (0%)
  385. Language                                 : Turkish
  386. Default                                  : No
  387. Forced                                   : No

  388. Text #29
  389. ID                                       : 31
  390. Format                                   : UTF-8
  391. Codec ID                                 : S_TEXT/UTF8
  392. Codec ID/Info                            : UTF-8 Plain Text
  393. Duration                                 : 1 h 27 min
  394. Bit rate                                 : 98 b/s
  395. Count of elements                        : 1147
  396. Stream size                              : 63.2 KiB (0%)
  397. Language                                 : Ukrainian
  398. Default                                  : No
  399. Forced                                   : No

  400. Text #30
  401. ID                                       : 32
  402. Format                                   : UTF-8
  403. Codec ID                                 : S_TEXT/UTF8
  404. Codec ID/Info                            : UTF-8 Plain Text
  405. Duration                                 : 1 h 27 min
  406. Bit rate                                 : 89 b/s
  407. Count of elements                        : 1147
  408. Stream size                              : 57.7 KiB (0%)
  409. Language                                 : Vietnamese
  410. Default                                  : No
  411. Forced                                   : No

  412. Text #31
  413. ID                                       : 33
  414. Format                                   : UTF-8
  415. Codec ID                                 : S_TEXT/UTF8
  416. Codec ID/Info                            : UTF-8 Plain Text
  417. Duration                                 : 1 h 27 min
  418. Bit rate                                 : 59 b/s
  419. Count of elements                        : 1141
  420. Stream size                              : 38.5 KiB (0%)
  421. Title                                    : Simplified
  422. Language                                 : Chinese
  423. Default                                  : No
  424. Forced                                   : No

  425. Text #32
  426. ID                                       : 34
  427. Format                                   : UTF-8
  428. Codec ID                                 : S_TEXT/UTF8
  429. Codec ID/Info                            : UTF-8 Plain Text
  430. Duration                                 : 1 h 27 min
  431. Bit rate                                 : 57 b/s
  432. Count of elements                        : 1134
  433. Stream size                              : 37.1 KiB (0%)
  434. Title                                    : Traditional
  435. Language                                 : Chinese
  436. Default                                  : No
  437. Forced                                   : No

  438. Menu
  439. 01:27:44.000                             : en:Credits
复制代码
磁力链:
  • magnet:?xt=urn:btih:EC7016C092690B9627C169EC62CE53B42E187421
上传的附件:
BT9527电影天堂 1、BT9527电影天堂提供的BT文件均来源于互联网抓取,只供网友学习交流、技术提升使用。
2、我们遵守BitTorrent点对点协议原则,任何版权问题请联系原资源发布商,我们不处理任何版权纠纷,谢谢!如有争议请联系邮箱:BT9527#hotmail.com(#换成@)
3、如果您发现某页面或地址有错误,请联系站长邮箱BT9527#hotmail.com(#换成@),我们会尽快处理。您的热心是对BT9527电影天堂最大的支持。
4、本站建议去正规影院观看电影以支持电影行业发展。
最新回复 (0)

你可以在 登录 or 注册 后,对此帖发表评论!

返回
发新帖