叶问宗师觉醒[国语音轨].Ip.Man.The.Awakening.2022.CHINESE.1080p.BluRay.x264.DTS-HD.MA.5.1-MT 10.95GB

版主小s 15天前 236



◎译  名 叶问宗师觉醒 / 叶问之宗师觉醒
◎年  代 2021
◎产  地 中国大陆
◎类  别 动作 / 武侠 / 古装
◎语  言 汉语普通话
◎上映日期 2021-09-16(中国大陆)
◎IMDb链接 https://www.imdb.com/title//
◎豆瓣链接 https://movie.douban.com/subject/35067572/
◎片  长 76分钟
◎导  演 李希杰 Adam (id:1431976)
       张著麟 Zhulin Zhang (id:1376600)
◎编  剧 方岚 Lan Fang (id:1394055)
       刘巴音 Bayin Liu (id:1413905)
◎演  员 谢苗 Miu Tse (id:1314627)
       陈冠英 Guanying Chen (id:1419580)
       华栖龙 Sergio Deieso (id:1364611)
       侯桐江 Tongjiang Hou (id:1326724)

◎简  介
  在香港读书的少年叶问,意外卷入英国斯塔克集团绑架中国女人走私到海外的人口贩卖大案,叶问挺身而出怒打洋人,三战英国巴顿勇士,以咏春捍卫被践踏的国人尊严。

  1. Video
  2. ID                                       : 1
  3. Format                                   : AVC
  4. Format/Info                              : Advanced Video Codec
  5. Format profile                           : High@L4.1
  6. Format settings                          : CABAC / 5 Ref Frames
  7. Format settings, CABAC                   : Yes
  8. Format settings, Reference frames        : 5 frames
  9. Codec ID                                 : V_MPEG4/ISO/AVC
  10. Duration                                 : 1 h 19 min
  11. Bit rate                                 : 17.3 Mb/s
  12. Width                                    : 1 920 pixels
  13. Height                                   : 818 pixels
  14. Display aspect ratio                     : 2.35:1
  15. Frame rate mode                          : Constant
  16. Frame rate                               : 24.000 FPS
  17. Color space                              : YUV
  18. Chroma subsampling                       : 4:2:0
  19. Bit depth                                : 8 bits
  20. Scan type                                : Progressive
  21. Bits/(Pixel*Frame)                       : 0.458
  22. Stream size                              : 9.61 GiB (88%)
  23. Writing library                          : x264 core 157 r2938 2b00a84 TnP@MTeam Mod
  24. Encoding settings                        : cabac=1 / ref=5 / deblock=1:-3:-3 / analyse=0x3:0x133 / me=umh / subme=10 / psy=1 / psy_rd=1.05:0.00 / mixed_ref=1 / me_range=32 / chroma_me=1 / trellis=2 / 8x8dct=1 / cqm=0 / deadzone=21,11 / fast_pskip=0 / chroma_qp_offset=-2 / threads=12 / lookahead_threads=2 / sliced_threads=0 / nr=0 / decimate=0 / interlaced=0 / NTMzNTQ= / bluray_compat=0 / constrained_intra=0 / bframes=8 / b_pyramid=2 / b_adapt=2 / b_bias=0 / direct=3 / weightb=1 / open_gop=0 / weightp=2 / keyint=250 / keyint_min=24 / NTMzNTQ=uuDQuD2mJt9fsCf / scenecut=40 / intra_refresh=0 / rc_lookahead=250 / rc=crf / mbtree=0 / crf=16.8 / qcomp=0.60 / qpmin=0 / qpmax=69 / qpstep=4 / vbv_maxrate=62500 / vbv_bufsize=78125 / crf_max=0.0 / nal_hrd=none / filler=0 / NTMzNTQ=LmsMAP37EqsCpk / ip_ratio=1.30 / pb_ratio=1.20 / aq=3:0.80
  25. Language                                 : Chinese
  26. Default                                  : Yes
  27. Forced                                   : No
  28. Color range                              : Limited
  29. Color primaries                          : BT.709
  30. Matrix coefficients                      : BT.709

  31. Audio
  32. ID                                       : 2
  33. Format                                   : DTS XLL
  34. Format/Info                              : Digital Theater Systems
  35. Commercial name                          : DTS-HD Master Audio
  36. Codec ID                                 : A_DTS
  37. Duration                                 : 1 h 19 min
  38. Bit rate mode                            : Variable
  39. Bit rate                                 : 2 402 kb/s
  40. Channel(s)                               : 6 channels
  41. Channel layout                           : C L R Ls Rs LFE
  42. Sampling rate                            : 48.0 kHz
  43. Frame rate                               : 93.750 FPS (512 SPF)
  44. Bit depth                                : 16 bits
  45. Compression mode                         : Lossless
  46. Stream size                              : 1.34 GiB (12%)
  47. Language                                 : Chinese
  48. Default                                  : Yes
  49. Forced                                   : No

  50. Text #1
  51. ID                                       : 3
  52. Format                                   : UTF-8
  53. Codec ID                                 : S_TEXT/UTF8
  54. Codec ID/Info                            : UTF-8 Plain Text
  55. Duration                                 : 1 h 16 min
  56. Bit rate                                 : 31 b/s
  57. Count of elements                        : 963
  58. Stream size                              : 17.4 KiB (0%)
  59. Language                                 : English
  60. Default                                  : Yes
  61. Forced                                   : No

  62. Text #2
  63. ID                                       : 4
  64. Format                                   : PGS
  65. Muxing mode                              : zlib
  66. Codec ID                                 : S_HDMV/PGS
  67. Codec ID/Info                            : Picture based subtitle format used on BDs/HD-DVDs
  68. Duration                                 : 1 h 16 min
  69. Bit rate                                 : 21.3 kb/s
  70. Count of elements                        : 1639
  71. Stream size                              : 11.6 MiB (0%)
  72. Language                                 : English
  73. Default                                  : No
  74. Forced                                   : No

  75. Menu
  76. 00:00:00.000                             : en:Chapter 01
  77. 00:10:53.417                             : en:Chapter 02
  78. 00:16:06.583                             : en:Chapter 03
  79. 00:25:41.208                             : en:Chapter 04
  80. 00:33:23.292                             : en:Chapter 05
  81. 00:42:23.625                             : en:Chapter 06
  82. 00:52:15.833                             : en:Chapter 07
  83. 01:04:36.833                             : en:Chapter 08







此处一般会放置磁力链或种子下载链接,不过此链接需要注册会员才能看到,点击“立即注册”
磁力链下载【下载链接仅对注册会员开放,登陆后可见】

BT9527电影天堂 1、BT9527电影天堂提供的BT文件均来源于互联网抓取,只供网友学习交流、技术提升使用。
2、我们遵守BitTorrent点对点协议原则,任何版权问题请联系原资源发布商,我们不处理任何版权纠纷,谢谢!如有争议请联系邮箱:BT9527#hotmail.com(#换成@)
3、如果您发现某页面或地址有错误,请联系站长邮箱BT9527#hotmail.com(#换成@),我们会尽快处理。您的热心是对BT9527电影天堂最大的支持。
4、本站建议去正规影院观看电影以支持电影行业发展。
最新回复 (3)
  • rtv100 14天前
    2
    个个都来蹭叶问的热度,之前看过叶问前传,甄子丹拍的4部,后来梁朝伟的,黄秋生的,今天出谢苗少年版的,是不是过段时间拍叶问童年的嘛。
  • 版主小s 14天前
    3
    rtv100 个个都来蹭叶问的热度,之前看过叶问前传,甄子丹拍的4部,后来梁朝伟的,黄秋生的,今天出谢苗少年版的,是不是过段时间拍叶问童年的嘛。
    基操勿六
  • 王伟1036 13天前
    4
    叶问好片,看过几部。

你可以在 登录 or 注册 后,对此帖发表评论!

返回
发新帖