一直游到海水变蓝[国语音轨].Swimming.Out.Till.the.Sea.Turns.Blue.2020.1080p.BluRay.x264-BiPOLAR 13.89GB

版主小s 18天前 87




◎译  名 一直游到海水变蓝 / 一个村庄的文学 / Swimming out till the Sea Turns Blue / So Close to My Land
◎年  代 2020
◎产  地 中国大陆
◎类  别 纪录片
◎语  言 汉语普通话
◎上映日期 2021-09-19(中国大陆) / 2020-02-21(柏林电影节)
◎IMDb链接 https://www.imdb.com/title/tt10374360/
◎豆瓣评分 6.7/10 (57997人评价)
◎豆瓣链接 https://movie.douban.com/subject/33440244/
◎片  长 112分钟
◎导  演 贾樟柯 Zhangke Jia (id:1274261)
◎编  剧 贾樟柯 Zhangke Jia (id:1274261)
       万佳欢  (id:1415679)
◎演  员 贾平凹 Pingwa Jia (id:1313715)
       余华 Hua Yu (id:1002372)
       梁鸿 Hong Liang (id:1424471)
       贾樟柯 Zhangke Jia (id:1274261)
       莫言 Yan Mo (id:1324032)
       苏童 Tong  Su (id:1321658)
       赵涛 Tao Zhao (id:1005985)
       龚宇 Yu Gong (id:1406734)
       余力为 Nelson Yu Lik-wai (id:1166303)
       黄海 Hai Huang (id:1401245)

◎简  介
  2019年5月,几十位作家来到山西汾阳的一个小村庄,他们在这里谈论乡村与城市,文学与现实。影片以此为序曲,交响乐般地以18个章节讲述出1949年以来的中国往事。出生于上世纪50年代、60年代和70年代的三位作家贾平凹、余华和梁鸿成为影片最重要的叙述者,他们与已故作家马烽的女儿一起,重新注视了社会变迁中的个人与家庭,让影片成为一部跨度长达70年的中国心灵史。

◎获奖情况 (共3项)
  第4届平遥国际电影展 (2020)
  从山西出发单元最受欢迎影片(提名)
   └──贾樟柯 (id:1274261)

  第13届澳门国际电影节 (2021)
  金莲花奖 最佳导演奖(提名)
   └──贾樟柯 (id:1274261)

  第7届豆瓣电影年度榜单 (2020)
  最值得期待的华语电影(提名)

  1. Video
  2. ID                                       : 1
  3. Format                                   : AVC
  4. Format/Info                              : Advanced Video Codec
  5. Format profile                           : High@L4.1
  6. Format settings                          : CABAC / 4 Ref Frames
  7. Format settings, CABAC                   : Yes
  8. Format settings, Reference frames        : 4 frames
  9. Codec ID                                 : V_MPEG4/ISO/AVC
  10. Duration                                 : 1 h 52 min
  11. Bit rate                                 : 14.0 Mb/s
  12. Width                                    : 1 920 pixels
  13. Height                                   : 1 038 pixels
  14. Display aspect ratio                     : 1.85:1
  15. Frame rate mode                          : Constant
  16. Frame rate                               : 24.000 FPS
  17. Color space                              : YUV
  18. Chroma subsampling                       : 4:2:0
  19. Bit depth                                : 8 bits
  20. Scan type                                : Progressive
  21. Bits/(Pixel*Frame)                       : 0.292
  22. Stream size                              : 10.9 GiB (79%)
  23. Writing library                          : x264 core 164 r3095 baee400
  24. Encoding settings                        : cabac=1 / ref=4 / deblock=1:-3:-3 / analyse=0x3:0x133 / me=umh / subme=10 / psy=1 / psy_rd=1.00:0.15 / mixed_ref=1 / me_range=24 / chroma_me=1 / trellis=2 / 8x8dct=1 / cqm=0 / deadzone=21,11 / fast_pskip=1 / chroma_qp_offset=-3 / threads=18 / lookahead_threads=3 / sliced_threads=0 / nr=0 / decimate=1 / interlaced=0 / NTMzNTQ= / bluray_compat=0 / constrained_intra=0 / bframes=8 / b_pyramid=2 / b_adapt=2 / b_bias=0 / direct=3 / weightb=1 / open_gop=0 / weightp=2 / keyint=250 / keyint_min=24 / NTMzNTQ=uuDQuD2mJt9fsCf / scenecut=40 / intra_refresh=0 / rc_lookahead=60 / rc=crf / mbtree=1 / crf=19.0 / qcomp=0.60 / qpmin=0 / qpmax=69 / qpstep=4 / NTMzNTQ=LmsMAP37EqsCpk / ip_ratio=1.40 / aq=3:0.60
  25. Language                                 : English
  26. Default                                  : Yes
  27. Forced                                   : No
  28. Color range                              : Limited
  29. Matrix coefficients                      : BT.709
  30. Audio
  31. ID                                       : 2
  32. Format                                   : DTS XLL
  33. Format/Info                              : Digital Theater Systems
  34. Commercial name                          : DTS-HD Master Audio
  35. Codec ID                                 : A_DTS
  36. Duration                                 : 1 h 52 min
  37. Bit rate mode                            : Variable
  38. Bit rate                                 : 3 739 kb/s
  39. Channel(s)                               : 6 channels
  40. Channel layout                           : C L R Ls Rs LFE
  41. Sampling rate                            : 48.0 kHz
  42. Frame rate                               : 93.750 FPS (512 SPF)
  43. Bit depth                                : 24 bits
  44. Compression mode                         : Lossless
  45. Stream size                              : 2.93 GiB (21%)
  46. Title                                    : Mandarin
  47. Language                                 : Chinese
  48. Default                                  : Yes
  49. Forced                                   : No
  50. Text #1
  51. ID                                       : 3
  52. Format                                   : UTF-8
  53. Codec ID                                 : S_TEXT/UTF8
  54. Codec ID/Info                            : UTF-8 Plain Text
  55. Duration                                 : 1 h 47 min
  56. Bit rate                                 : 68 b/s
  57. Count of elements                        : 1562
  58. Stream size                              : 53.5 KiB (0%)
  59. Title                                    : English
  60. Language                                 : English
  61. Default                                  : Yes
  62. Forced                                   : Yes
  63. Text #2
  64. ID                                       : 4
  65. Format                                   : PGS
  66. Muxing mode                              : zlib
  67. Codec ID                                 : S_HDMV/PGS
  68. Codec ID/Info                            : Picture based subtitle format used on BDs/HD-DVDs
  69. Duration                                 : 1 h 47 min
  70. Bit rate                                 : 22.2 kb/s
  71. Count of elements                        : 3124
  72. Stream size                              : 17.0 MiB (0%)
  73. Title                                    : English
  74. Language                                 : English
  75. Default                                  : No
  76. Forced                                   : No
  77. Text #3
  78. ID                                       : 5
  79. Format                                   : UTF-8
  80. Codec ID                                 : S_TEXT/UTF8
  81. Codec ID/Info                            : UTF-8 Plain Text
  82. Duration                                 : 1 h 47 min
  83. Bit rate                                 : 62 b/s
  84. Count of elements                        : 1228
  85. Stream size                              : 49.2 KiB (0%)
  86. Title                                    : Portuguese
  87. Language                                 : Portuguese
  88. Default                                  : No
  89. Forced                                   : No
  90. Menu
  91. 00:00:00.000                             : en:00:00:00.000
  92. 00:16:59.708                             : en:00:16:59.708
  93. 00:19:23.500                             : en:00:19:23.500
  94. 00:26:10.083                             : en:00:26:10.083
  95. 00:27:52.750                             : en:00:27:52.750
  96. 00:31:50.125                             : en:00:31:50.125
  97. 00:34:07.083                             : en:00:34:07.083
  98. 00:38:36.458                             : en:00:38:36.458
  99. 00:55:05.125                             : en:00:55:05.125
  100. 00:57:55.125                             : en:00:57:55.125
  101. 01:17:42.833                             : en:01:17:42.833
  102. 01:20:58.542                             : en:01:20:58.542
  103. 01:26:57.708                             : en:01:26:57.708
  104. 01:30:34.583                             : en:01:30:34.583
  105. 01:35:42.083                             : en:01:35:42.083
  106. 01:42:20.292                             : en:01:42:20.292
  107. 01:44:00.500                             : en:01:44:00.500
  108. 01:47:46.250                             : en:01:47:46.250
  109. 01:48:22.292                             : en:01:48:22.292
复制代码




上传的附件:
BT9527电影天堂 1、BT9527电影天堂提供的BT文件均来源于互联网抓取,只供网友学习交流、技术提升使用。
2、我们遵守BitTorrent点对点协议原则,任何版权问题请联系原资源发布商,我们不处理任何版权纠纷,谢谢!如有争议请联系邮箱:BT9527#hotmail.com(#换成@)
3、如果您发现某页面或地址有错误,请联系站长邮箱BT9527#hotmail.com(#换成@),我们会尽快处理。您的热心是对BT9527电影天堂最大的支持。
4、本站建议去正规影院观看电影以支持电影行业发展。
最新回复 (0)

你可以在 登录 or 注册 后,对此帖发表评论!

返回
发新帖