影子舞者[简繁英字幕].Shadow.Dancer.2012.1080p.BluRay.DTS.x265-10bit-ENTHD 5.90GB

版主小s 19天前 174

✔资源类型:暂未分类   ✔电影年份:2012   ✔电影地区:欧美   ✔电影分类:剧情

◎译  名 影子舞者 / 影舞者
◎片  名 Shadow Dancer
◎年  代 2012
◎产  地 英国
◎类  别 剧情 / 惊悚
◎语  言 英语
◎上映日期 2012-06-14(荷兰)
◎IMDb链接 https://www.imdb.com/title/tt1770734/
◎豆瓣评分 6.5/10 (1870人评价)
◎豆瓣链接 https://movie.douban.com/subject/6081097/
◎片  长 101分钟
◎导  演 詹姆斯·马什 James Marsh (id:1045285)
◎演  员 克里夫·欧文 Clive Owen (id:1025147)
       安德丽娅·赖斯伯勒 Andrea Riseborough (id:1040815)
       吉莲·安德森 Gillian Anderson (id:1022623)
       艾丹·吉伦 Aidan Gillen (id:1044961)
       多姆纳尔·格里森 Domhnall Gleeson (id:1313116)
       迈克尔·麦克埃尔哈顿 Michael McElhatton (id:1291550)
       马丁·麦凯恩 Martin McCann (id:1009371)
       Graham Stuart Graham Stuart (id:1298573)
       斯图尔特·格雷厄姆 Stuart Graham (id:1285282)
       布里德·布伦南 Brid Brennan (id:1279241)
       摩根·华金斯 Morgan Watkins (id:1320054)
       迪肯·辛奇利夫 Dickon Hinchliffe (id:1439766)
       罗伯·哈迪 Rob Hardy (id:1303822)
       洛娜·玛丽·穆根 Lorna Marie Mugan (id:1292665)
       迈克尔·弗里德曼 Michael Freedman (id:1419119)

◎简  介
  影片根据前电影记者汤姆-布莱迪的原著小说改编而来。                                    
                                故事的起源发生在1973年,一个名叫克洛特的小女孩,因为护送弟弟时失误而让弟弟惨遭杀害。20年之后,成年的克洛特(安德丽亚·瑞斯波罗格 Andrea Riseborough 饰)为了复仇,成了一名非常激进的爱尔兰共和军,并和另外两个兄弟格里和科尼尔联手接下了组织安排的一个棘手任务——在伦敦地铁制造一场惊天爆炸。但在这次行动中,克洛特被英国军情五处的高级官员麦克(克里夫·欧文 Clive Owen 饰)截获,麦克给了克洛特两条路选择:一是去坐25年牢,永远别再想见到自己的儿子;二是背叛兄弟,成为军情五处的绝密线人。为此,克洛特不得不背叛身为爱尔兰共和军的家人和自己的信仰。但在一次次行动中,双方都发现了有内鬼在作怪,于是克洛特首当其冲地被当作了牺牲品......

◎获奖情况 (共2项)
  第15届英国独立电影奖 (2012)
  最佳女主角
   └──安德丽娅·赖斯伯勒 (id:1040815)
  最佳男配角(提名)
   └──多姆纳尔·格里森 (id:1313116)

  1. ##### MediaInfo ######
  2. General
  3. Unique ID                                : 280372417852719439783747156075842297859 (0xD2EDC3758A71E5FE0D6865015A96E003)
  4. Complete name                            : Shadow.Dancer.2012.1080p.BluRay.DTS.x265-10bit-ENTHD.mkv
  5. Format                                   : Matroska
  6. Format version                           : Version 4
  7. File size                                : 5.90 GiB
  8. Duration                                 : 1 h 41 min
  9. Overall bit rate                         : 8 314 kb/s
  10. Movie name                               : Shadow Dancer 2012 1080p BluRay DTS x265-10bit-HDS
  11. Encoded date                             : UTC 2022-06-14 07:45:56
  12. Writing application                      : mkvmerge v67.0.0 ('Under Stars') 64-bit
  13. Writing library                          : libebml v1.4.2 + libmatroska v1.6.4
  14. Video
  15. ID                                       : 1
  16. Format                                   : HEVC
  17. Format/Info                              : High Efficiency Video Coding
  18. Format profile                           : Main 10@L5.1@High
  19. Codec ID                                 : V_MPEGH/ISO/HEVC
  20. Duration                                 : 1 h 41 min
  21. Bit rate                                 : 6 762 kb/s
  22. Width                                    : 1 920 pixels
  23. Height                                   : 816 pixels
  24. Display aspect ratio                     : 2.35:1
  25. Frame rate mode                          : Constant
  26. Frame rate                               : 23.976 (24000/1001/53354) FPS
  27. Color space                              : YUV
  28. Chroma subsampling                       : 4:2:0
  29. Bit depth                                : 10 bits
  30. Bits/(Pixel*Frame)                       : 0.180
  31. Stream size                              : 4.80 GiB (81%)
  32. Title                                    : meyu@HDSky
  33. Writing library                          : x265 - H.265/HEVC codec
  34. Default                                  : Yes
  35. Forced                                   : No
  36. Audio
  37. ID                                       : 2
  38. Format                                   : DTS
  39. Format/Info                              : Digital Theater Systems
  40. Codec ID                                 : A_DTS
  41. Duration                                 : 1 h 41 min
  42. Bit rate mode                            : Constant
  43. Bit rate                                 : 1 509 kb/s
  44. Channel(s)                               : 6 channels
  45. Channel layout                           : C L R Ls Rs LFE
  46. Sampling rate                            : 48.0 kHz
  47. Frame rate                               : 93.750 FPS (512 SPF)
  48. Bit depth                                : 24 bits
  49. Compression mode                         : Lossy
  50. Stream size                              : 1.07 GiB (18%)
  51. Title                                    : English
  52. Language                                 : English
  53. Default                                  : Yes
  54. Forced                                   : No
  55. Text #1
  56. ID                                       : 3
  57. Format                                   : PGS
  58. Muxing mode                              : zlib
  59. Codec ID                                 : S_HDMV/PGS
  60. Codec ID/Info                            : Picture based subtitle format used on BDs/HD-DVDs
  61. Duration                                 : 1 h 33 min
  62. Bit rate                                 : 33.0 kb/s
  63. Count of elements                        : 1411
  64. Stream size                              : 22.1 MiB (0%)
  65. Title                                    : CHS&ENG
  66. Language                                 : Chinese
  67. Default                                  : Yes
  68. Forced                                   : No
  69. Text #2
  70. ID                                       : 4
  71. Format                                   : PGS
  72. Muxing mode                              : zlib
  73. Codec ID                                 : S_HDMV/PGS
  74. Codec ID/Info                            : Picture based subtitle format used on BDs/HD-DVDs
  75. Duration                                 : 1 h 33 min
  76. Bit rate                                 : 33.4 kb/s
  77. Count of elements                        : 1411
  78. Stream size                              : 22.4 MiB (0%)
  79. Title                                    : CHT&ENG
  80. Language                                 : Chinese
  81. Default                                  : Yes
  82. Forced                                   : No
  83. Text #3
  84. ID                                       : 5
  85. Format                                   : PGS
  86. Muxing mode                              : zlib
  87. Codec ID                                 : S_HDMV/PGS
  88. Codec ID/Info                            : Picture based subtitle format used on BDs/HD-DVDs
  89. Duration                                 : 1 h 34 min
  90. Bit rate                                 : 29.0 kb/s
  91. Count of elements                        : 1712
  92. Stream size                              : 19.5 MiB (0%)
  93. Title                                    : ENG
  94. Language                                 : English
  95. Default                                  : Yes
  96. Forced                                   : No
  97. Menu
  98. 00:00:00.000                             : en:第 01 章
  99. 00:04:47.913                             : en:第 02 章
  100. 00:11:09.794                             : en:第 03 章
  101. 00:23:02.881                             : en:第 04 章
  102. 00:30:37.002                             : en:第 05 章
  103. 00:36:19.135                             : en:第 06 章
  104. 00:43:40.868                             : en:第 07 章
  105. 00:50:54.843                             : en:第 08 章
  106. 00:58:29.756                             : en:第 09 章
  107. 01:09:20.698                             : en:第 10 章
  108. 01:19:23.968                             : en:第 11 章
  109. 01:36:00.505                             : en:第 12 章





此处一般会放置磁力链或种子下载链接,不过此链接需要注册会员才能看到,点击“立即注册”
磁力链下载【下载链接仅对注册会员开放,登陆后可见】
BT9527电影天堂 1、BT9527电影天堂提供的BT文件均来源于互联网抓取,只供网友学习交流、技术提升使用。
2、我们遵守BitTorrent点对点协议原则,任何版权问题请联系原资源发布商,我们不处理任何版权纠纷,谢谢!如有争议请联系邮箱:BT9527#hotmail.com(#换成@)
3、如果您发现某页面或地址有错误,请联系站长邮箱BT9527#hotmail.com(#换成@),我们会尽快处理。您的热心是对BT9527电影天堂最大的支持。
4、本站建议去正规影院观看电影以支持电影行业发展。
最新回复 (0)

你可以在 登录 or 注册 后,对此帖发表评论!

返回
发新帖