彗星来的那一夜[简繁英字幕].Coherence.2013.1080p.BluRay.DTS.x265-10bit-ENTHD 5.32GB

版主小s 3月前 213

✔资源类型:暂未分类   ✔电影年份:2013   ✔电影地区:欧美   ✔电影分类:科幻

◎译  名 彗星来的那一夜 / 相干性 / 相干效应
◎片  名 Coherence
◎年  代 2013
◎产  地 美国 / 英国
◎类  别 科幻 / 悬疑 / 惊悚
◎语  言 英语
◎上映日期 2013-09-19(奇幻电影节) / 2014-08-06(美国)
◎IMDb链接 https://www.imdb.com/title/tt2866360/
◎豆瓣评分 8.5/10 (509264人评价)
◎豆瓣链接 https://movie.douban.com/subject/25807345/
◎片  长 89分钟
◎导  演 詹姆斯·沃德·布柯特 James Ward Byrkit (id:1342405)
◎编  剧 詹姆斯·沃德·布柯特 James Ward Byrkit (id:1342405)
       亚历克斯·马努吉安 Alex Manugian (id:1343115)
◎演  员 艾米丽·芭尔多尼 Emily Baldoni (id:1343010)
       莫瑞·史特林 Maury Sterling (id:1151824)
       尼古拉斯·布兰登 Nicholas Brendon (id:1000085)
       劳伦·斯卡法莉娅 Lorene Scafaria (id:1320877)
       伊丽莎白·格瑞斯 Elizabeth Gracen (id:1056173)
       雨果·阿姆斯特朗 Hugo Armstrong (id:1343120)
       亚历克斯·马努吉安 Alex Manugian (id:1343115)
       劳伦·马赫 Lauren Maher (id:1343121)
       莱内·鲍萨格尔 Lene Bausager (id:1304389)
       詹姆斯·沃德·布柯特 James Ward Byrkit (id:1342405)
       亚历克斯·马努吉安 Alex Manugian (id:1343115)
       克里斯汀·奥尔恩·戴鲁德 Kristin ?hrn Dyrud (id:1309107)
       尼克·赛德勒 Nic Sadler (id:1022524)
       詹姆斯·沃德·布柯特 James Ward Byrkit (id:1342405)
       诺玛·李 Norma Lee (id:1289694)
       维多利亚·伍德 Victoria Wood (id:1301232)
       乔伊·萨帕塔 Joy Zapata (id:1301634)
       杰西·波默罗伊 Jesse Pomeroy (id:1137035)
       文森特·吉塞蒂 Vincent Guisetti (id:1285629)

◎简  介
  在一个静得有些诡异阴森的夜晚,年轻女子艾米丽(艾米丽·芭尔多尼 Emily Baldoni 饰)驱车来到朋友家参加聚会。此前她一边开车一边和男友打电话,然而通话突然中断,她的手机屏也莫名其妙出现裂痕。这一事件让艾米丽的心中升起隐隐不安,因为当晚一颗彗星刚好接近地球,一个 很久之前听过的传说使她对彗星的到来有着不祥的预感。稍后,朋友们落座,大家彼此交谈,叙说近况,虽然言语中有着许多莫名其妙、蹊跷反常的线索,然而均被一带而过。突然间,灯光尽灭。当光明重新来临时,众人发现附近只有一户人家还在亮灯,而亮灯人家里坐着的竟是……                                    
                                本片荣获2014年阿姆斯特丹奇幻电影节黑郁金香奖。

◎获奖情况 (共3项)
  第24届哥谭独立电影奖 (2014)
  独立电影人奖(提名)
   └──詹姆斯·沃德·布柯特 (id:1342405)

  第1届豆瓣电影年度榜单 (2014)
  10月最受关注电影(提名)

  第5届豆瓣电影鑫像奖 (2015)
  鑫豆单元 最佳影片(外语)(提名)

  1. ##### MediaInfo ######
  2. General
  3. Unique ID                                : 240461502698207326477467578110772999757 (0xB4E7336B076CA742101AD61A2173764D)
  4. Complete name                            : Coherence.2013.1080p.BluRay.DTS.x265-10bit-ENTHD.mkv
  5. Format                                   : Matroska
  6. Format version                           : Version 4
  7. File size                                : 5.32 GiB
  8. Duration                                 : 1 h 27 min
  9. Overall bit rate                         : 8 664 kb/s
  10. Movie name                               : Coherence 2013 1080p BluRay DTS x265-10bit-HDS
  11. Encoded date                             : UTC 2022-06-14 12:54:55
  12. Writing application                      : mkvmerge v38.0.0 ('The Silent Type') 64-bit
  13. Writing library                          : libebml v1.3.9 + libmatroska v1.5.2
  14. Video
  15. ID                                       : 1
  16. Format                                   : HEVC
  17. Format/Info                              : High Efficiency Video Coding
  18. Format profile                           : Main 10@L5.1@High
  19. Codec ID                                 : V_MPEGH/ISO/HEVC
  20. Duration                                 : 1 h 27 min
  21. Bit rate                                 : 7 022 kb/s
  22. Width                                    : 1 920 pixels
  23. Height                                   : 820 pixels
  24. Display aspect ratio                     : 2.35:1
  25. Frame rate mode                          : Constant
  26. Frame rate                               : 24.000 FPS
  27. Color space                              : YUV
  28. Chroma subsampling                       : 4:2:0
  29. Bit depth                                : 10 bits
  30. Bits/(Pixel*Frame)                       : 0.186
  31. Stream size                              : 4.31 GiB (81%)
  32. Title                                    : yusuble@HDSky
  33. Writing library                          : x265 - H.265/HEVC codec
  34. Encoding settings                        : lslices=4 / deblock(tC=-1:B=-1)
  35. Default                                  : Yes
  36. Forced                                   : No
  37. Audio
  38. ID                                       : 2
  39. Format                                   : DTS
  40. Format/Info                              : Digital Theater Systems
  41. Codec ID                                 : A_DTS
  42. Duration                                 : 1 h 27 min
  43. Bit rate mode                            : Constant
  44. Bit rate                                 : 1 509 kb/s
  45. Channel(s)                               : 6 channels
  46. Channel layout                           : C L R Ls Rs LFE
  47. Sampling rate                            : 48.0 kHz
  48. Frame rate                               : 93.750 FPS (512 SPF)
  49. Bit depth                                : 24 bits
  50. Compression mode                         : Lossy
  51. Stream size                              : 948 MiB (17%)
  52. Title                                    : English
  53. Language                                 : English
  54. Default                                  : Yes
  55. Forced                                   : No
  56. Text #1
  57. ID                                       : 3
  58. Format                                   : PGS
  59. Muxing mode                              : zlib
  60. Codec ID                                 : S_HDMV/PGS
  61. Codec ID/Info                            : Picture based subtitle format used on BDs/HD-DVDs
  62. Duration                                 : 1 h 27 min
  63. Bit rate                                 : 65.6 kb/s
  64. Count of elements                        : 2048
  65. Stream size                              : 41.1 MiB (1%)
  66. Title                                    : CHS&ENG
  67. Language                                 : Chinese
  68. Default                                  : Yes
  69. Forced                                   : No
  70. Text #2
  71. ID                                       : 4
  72. Format                                   : PGS
  73. Muxing mode                              : zlib
  74. Codec ID                                 : S_HDMV/PGS
  75. Codec ID/Info                            : Picture based subtitle format used on BDs/HD-DVDs
  76. Duration                                 : 1 h 27 min
  77. Bit rate                                 : 42.2 kb/s
  78. Count of elements                        : 2047
  79. Stream size                              : 26.4 MiB (0%)
  80. Title                                    : CHS
  81. Language                                 : Chinese
  82. Default                                  : No
  83. Forced                                   : No
  84. Text #3
  85. ID                                       : 5
  86. Format                                   : PGS
  87. Muxing mode                              : zlib
  88. Codec ID                                 : S_HDMV/PGS
  89. Codec ID/Info                            : Picture based subtitle format used on BDs/HD-DVDs
  90. Duration                                 : 1 h 27 min
  91. Bit rate                                 : 66.6 kb/s
  92. Count of elements                        : 2048
  93. Stream size                              : 41.8 MiB (1%)
  94. Title                                    : CHT&ENG
  95. Language                                 : Chinese
  96. Default                                  : No
  97. Forced                                   : No
  98. Text #4
  99. ID                                       : 6
  100. Format                                   : PGS
  101. Muxing mode                              : zlib
  102. Codec ID                                 : S_HDMV/PGS
  103. Codec ID/Info                            : Picture based subtitle format used on BDs/HD-DVDs
  104. Duration                                 : 1 h 27 min
  105. Bit rate                                 : 43.3 kb/s
  106. Count of elements                        : 2047
  107. Stream size                              : 27.2 MiB (0%)
  108. Title                                    : CHT
  109. Language                                 : Chinese
  110. Default                                  : No
  111. Forced                                   : No
  112. Text #5
  113. ID                                       : 7
  114. Format                                   : PGS
  115. Muxing mode                              : zlib
  116. Codec ID                                 : S_HDMV/PGS
  117. Codec ID/Info                            : Picture based subtitle format used on BDs/HD-DVDs
  118. Duration                                 : 1 h 27 min
  119. Bit rate                                 : 57.9 kb/s
  120. Count of elements                        : 2043
  121. Stream size                              : 36.3 MiB (1%)
  122. Title                                    : ENG
  123. Language                                 : English
  124. Default                                  : No
  125. Forced                                   : No
  126. Menu
  127. 00:00:00.000                             : en:Chapter 01
  128. 00:09:38.125                             : en:Chapter 02
  129. 00:22:28.958                             : en:Chapter 03
  130. 00:32:46.083                             : en:Chapter 04
  131. 00:41:56.167                             : en:Chapter 05
  132. 00:56:21.875                             : en:Chapter 06
  133. 01:06:47.000                             : en:Chapter 07
  134. 01:16:53.417                             : en:Chapter 08





此处一般会放置磁力链或种子下载链接,不过此链接需要注册会员才能看到,点击“立即注册”
磁力链下载【下载链接仅对注册会员开放,登陆后可见】
BT9527电影天堂 1、BT9527电影天堂提供的BT文件均来源于互联网抓取,只供网友学习交流、技术提升使用。
2、我们遵守BitTorrent点对点协议原则,任何版权问题请联系原资源发布商,我们不处理任何版权纠纷,谢谢!如有争议请联系邮箱:BT9527#hotmail.com(#换成@)
3、如果您发现某页面或地址有错误,请联系站长邮箱BT9527#hotmail.com(#换成@),我们会尽快处理。您的热心是对BT9527电影天堂最大的支持。
4、本站建议去正规影院观看电影以支持电影行业发展。
最新回复 (0)

你可以在 登录 or 注册 后,对此帖发表评论!

返回