音乐之声[国英多音轨/中英字幕].The.Sound.of.Music.1965.BluRay.1080p.x265.10bit.3Audio-MiniHD 15.29GB

版主小s 19天前 65

✔资源类型:暂未分类   ✔电影年份:更 早   ✔电影地区:欧美   ✔电影分类:剧情

◎译  名 音乐之声 / 仙乐飘飘处处闻(港) / 真善美(台) / 一个叛逆修女的故事
◎片  名 The Sound of Music
◎年  代 1965
◎产  地 美国
◎类  别 剧情 / 爱情 / 歌舞 / 传记
◎语  言 英语 / 德语
◎上映日期 1965-03-02(美国)
◎IMDb链接 https://www.imdb.com/title/tt0059742/
◎豆瓣评分 9.1/10 (549192人评价)
◎豆瓣链接 https://movie.douban.com/subject/1294408/
◎片  长 174分钟
◎导  演 罗伯特·怀斯 Robert Wise (id:1049929)
◎编  剧 乔治·胡达勒克 George Hurdalek (id:1007266)
       霍华德·林赛 Howard Lindsay (id:1001162)
       拉塞尔·克劳斯 Russel Crouse (id:1033169)
       恩斯特·莱赫曼 Ernest Lehman (id:1037077)
       玛丽亚·冯·特拉普 Maria von Trapp (id:1005247)
◎演  员 朱莉·安德鲁斯 Julie Andrews (id:1041081)
       克里斯托弗·普卢默 Christopher Plummer (id:1036321)
       埃琳诺·帕克 Eleanor Parker (id:1010671)
       理查德·海顿 Richard Haydn (id:1032252)
       佩吉·伍德 Peggy Wood (id:1164001)
       查尔敏·卡尔 Charmian Carr (id:1076902)
       希瑟·孟席斯-尤里克 Heather Menzies-Urich (id:1117641)
       尼古拉斯·哈蒙德 Nicholas Hammond (id:1093594)
       杜安·蔡斯 Duane Chase (id:1070171)
       安吉拉·卡特怀特 Angela Cartwright (id:1071044)
       黛比·特纳 Debbie Turner (id:1050058)
       基姆·卡拉思 Kym Karath (id:1104978)
       安娜·李 Anna Lee (id:1016726)
       波希娅·纳尔逊 Portia Nelson (id:1131691)
       本·怀特 Ben Wright (id:1164360)
       丹尼尔·特鲁希特 Daniel Truhitte (id:1158682)
       诺玛·威登 Norma Varden (id:1156944)
       吉尔克里斯特·斯图尔特 Gilchrist Stuart (id:1149140)
       马妮·尼克松 Marni Nixon (id:1134909)
       埃瓦德妮·贝克 Evadne Baker (id:1058497)
       多丽丝·劳埃德 Doris Lloyd (id:1120544)
       格特鲁德·阿斯特 Gertrude Astor (id:1054339)
       弗兰克·贝克 Frank Baker (id:1056325)
       史蒂夫·卡鲁瑟斯 Steve Carruthers (id:1072992)
       山姆·哈里斯 Sam Harris (id:1100419)
       多罗西·吉金斯 Dorothy Jeakins (id:1017048)
       利奥达·理查德斯 Leoda Richards (id:1139915)
       杰弗里·塞尔 Jeffrey Sayre (id:1145133)
       伯纳德·赛尔 Bernard Sell (id:1142292)
       诺尔曼·斯蒂凡斯 Norman Stevans (id:1158266)
       伯特史蒂文斯 Bert Stevens (id:1156589)
       玛丽亚·冯·特拉普 Maria von Trapp (id:1005247)
       毕克 Ke Bi (id:1322554)
       李梓 Zi Li (id:1331563)
       多罗西·吉金斯 Dorothy Jeakins (id:1017048)

◎简  介
  玛利亚(朱丽·安德鲁斯  饰)是一个年轻活泼的修女,喜欢在大自然下高声歌唱,所以她常常忘记了修道院里的规矩。院长认为玛利亚并不属于规矩严格的修道院。院长与众嬷嬷商量后,决定安排玛利亚到一位名叫特拉普(克里斯托弗·普卢默 饰)上校家当家庭教师。                                    
                                上校的妻子去世多年,留下7个孩子,他要求对孩子严格管教。他告诉玛利亚在他家的家庭教师都做不长久,都是因为孩子的恶作剧。玛利亚果然也遭到了恶作剧,可是这位善良的老师并没有告诉他们的父亲,而是像个母亲一样照顾孩子,很快跟孩子打成一片。上校也渐渐在玛利亚的引导下改变了对孩子们的态度。上校与玛利亚之间发生了感情,他们完婚后回到了已被纳粹占领的奥地利,上校并不想为纳粹办事,一家人准备逃跑……

◎获奖情况 (共10项)
  第38届奥斯卡金像奖 (1966)
  最佳影片
   └──罗伯特·怀斯 (id:1049929)
  最佳导演
   └──罗伯特·怀斯 (id:1049929)
  最佳女主角(提名)
   └──朱莉·安德鲁斯 (id:1041081)
  最佳女配角(提名)
   └──佩吉·伍德 (id:1164001)
  彩色片最佳摄影(提名)
   └──泰德·D·麦科德 (id:1025602)
  最佳剪辑
   └──威廉·雷诺兹 (id:1138322)
  最佳音响
  彩色片最佳艺术指导和布景(提名)
  彩色片最佳服装设计(提名)
   └──多罗西·吉金斯 (id:1017048)
  最佳改编配乐
   └──厄文·科斯塔尔 (id:1028838)

  1. ##### MediaInfo ######
  2. General
  3. Unique ID                                : 224988949880109819429083601991452637549 (0xA9434BAAACA3AED1A694AF2A8480B96D)
  4. Complete name                            : The.Sound.of.Music.1965.BluRay.1080p.x265.10bit.3Audio-MiniHD.mkv
  5. Format                                   : Matroska
  6. Format version                           : Version 4
  7. File size                                : 15.3 GiB
  8. Duration                                 : 2 h 54 min
  9. Overall bit rate                         : 12.5 Mb/s
  10. Encoded date                             : UTC 2017-10-11 18:57:38
  11. Writing application                      : mkvmerge v11.0.0 ('Alive') 64bit
  12. Writing library                          : libebml v1.3.4 + libmatroska v1.4.5
  13. Video
  14. ID                                       : 1
  15. Format                                   : HEVC
  16. Format/Info                              : High Efficiency Video Coding
  17. Codec ID                                 : V_MPEGH/ISO/HEVC
  18. Duration                                 : 2 h 54 min
  19. Bit rate                                 : 11.2 Mb/s
  20. Width                                    : 1 920 pixels
  21. Height                                   : 872 pixels
  22. Display aspect ratio                     : 2.2:1
  23. Frame rate mode                          : Constant
  24. Frame rate                               : 23.976 (24000/1001/53354) FPS
  25. Bits/(Pixel*Frame)                       : 0.278
  26. Stream size                              : 13.6 GiB (89%)
  27. Default                                  : Yes
  28. Forced                                   : No
  29. Audio #1
  30. ID                                       : 2
  31. Format                                   : AC-3
  32. Format/Info                              : Audio Coding 3
  33. Commercial name                          : Dolby Digital
  34. Codec ID                                 : A_AC3
  35. Duration                                 : 2 h 54 min
  36. Bit rate mode                            : Constant
  37. Bit rate                                 : 640 kb/s
  38. Channel(s)                               : 6 channels
  39. Channel layout                           : L R C LFE Ls Rs
  40. Sampling rate                            : 48.0 kHz
  41. Frame rate                               : 31.250 FPS (1536 SPF)
  42. Compression mode                         : Lossy
  43. Stream size                              : 800 MiB (5%)
  44. Language                                 : English
  45. Service kind                             : Complete Main
  46. Default                                  : Yes
  47. Forced                                   : No
  48. Audio #2
  49. ID                                       : 3
  50. Format                                   : AC-3
  51. Format/Info                              : Audio Coding 3
  52. Commercial name                          : Dolby Digital
  53. Codec ID                                 : A_AC3
  54. Duration                                 : 2 h 54 min
  55. Bit rate mode                            : Constant
  56. Bit rate                                 : 448 kb/s
  57. Channel(s)                               : 6 channels
  58. Channel layout                           : L R C LFE Ls Rs
  59. Sampling rate                            : 48.0 kHz
  60. Frame rate                               : 31.250 FPS (1536 SPF)
  61. Compression mode                         : Lossy
  62. Stream size                              : 560 MiB (4%)
  63. Language                                 : Chinese
  64. Service kind                             : Complete Main
  65. Default                                  : No
  66. Forced                                   : No
  67. Audio #3
  68. ID                                       : 4
  69. Format                                   : AC-3
  70. Format/Info                              : Audio Coding 3
  71. Commercial name                          : Dolby Digital
  72. Codec ID                                 : A_AC3
  73. Duration                                 : 2 h 54 min
  74. Bit rate mode                            : Constant
  75. Bit rate                                 : 192 kb/s
  76. Channel(s)                               : 2 channels
  77. Channel layout                           : L R
  78. Sampling rate                            : 48.0 kHz
  79. Frame rate                               : 31.250 FPS (1536 SPF)
  80. Compression mode                         : Lossy
  81. Stream size                              : 240 MiB (2%)
  82. Language                                 : Chinese
  83. Service kind                             : Complete Main
  84. Default                                  : No
  85. Forced                                   : No
  86. Text #1
  87. ID                                       : 5
  88. Format                                   : PGS
  89. Muxing mode                              : zlib
  90. Codec ID                                 : S_HDMV/PGS
  91. Codec ID/Info                            : Picture based subtitle format used on BDs/HD-DVDs
  92. Duration                                 : 2 h 51 min
  93. Bit rate                                 : 9 866 b/s
  94. Count of elements                        : 3918
  95. Stream size                              : 12.1 MiB (0%)
  96. Language                                 : English
  97. Default                                  : Yes
  98. Forced                                   : No
  99. Text #2
  100. ID                                       : 6
  101. Format                                   : PGS
  102. Muxing mode                              : zlib
  103. Codec ID                                 : S_HDMV/PGS
  104. Codec ID/Info                            : Picture based subtitle format used on BDs/HD-DVDs
  105. Duration                                 : 2 h 51 min
  106. Bit rate                                 : 14.0 kb/s
  107. Count of elements                        : 3800
  108. Stream size                              : 17.2 MiB (0%)
  109. Language                                 : Chinese
  110. Default                                  : No
  111. Forced                                   : No
  112. Text #3
  113. ID                                       : 7
  114. Format                                   : PGS
  115. Muxing mode                              : zlib
  116. Codec ID                                 : S_HDMV/PGS
  117. Codec ID/Info                            : Picture based subtitle format used on BDs/HD-DVDs
  118. Duration                                 : 2 h 51 min
  119. Bit rate                                 : 14.5 kb/s
  120. Count of elements                        : 3800
  121. Stream size                              : 17.8 MiB (0%)
  122. Language                                 : Chinese
  123. Default                                  : No
  124. Forced                                   : No
  125. Text #4
  126. ID                                       : 8
  127. Format                                   : PGS
  128. Muxing mode                              : zlib
  129. Codec ID                                 : S_HDMV/PGS
  130. Codec ID/Info                            : Picture based subtitle format used on BDs/HD-DVDs
  131. Duration                                 : 2 h 51 min
  132. Bit rate                                 : 14.0 kb/s
  133. Count of elements                        : 3800
  134. Stream size                              : 17.2 MiB (0%)
  135. Language                                 : Chinese
  136. Default                                  : No
  137. Forced                                   : No
  138. Text #5
  139. ID                                       : 9
  140. Format                                   : PGS
  141. Muxing mode                              : zlib
  142. Codec ID                                 : S_HDMV/PGS
  143. Codec ID/Info                            : Picture based subtitle format used on BDs/HD-DVDs
  144. Duration                                 : 2 h 51 min
  145. Bit rate                                 : 14.5 kb/s
  146. Count of elements                        : 3800
  147. Stream size                              : 17.8 MiB (0%)
  148. Language                                 : Chinese
  149. Default                                  : No
  150. Forced                                   : No
  151. Text #6
  152. ID                                       : 10
  153. Format                                   : PGS
  154. Muxing mode                              : zlib
  155. Codec ID                                 : S_HDMV/PGS
  156. Codec ID/Info                            : Picture based subtitle format used on BDs/HD-DVDs
  157. Duration                                 : 2 h 49 min
  158. Bit rate                                 : 10.9 kb/s
  159. Count of elements                        : 3741
  160. Stream size                              : 13.2 MiB (0%)
  161. Language                                 : Chinese
  162. Default                                  : No
  163. Forced                                   : No
  164. Text #7
  165. ID                                       : 11
  166. Format                                   : PGS
  167. Muxing mode                              : zlib
  168. Codec ID                                 : S_HDMV/PGS
  169. Codec ID/Info                            : Picture based subtitle format used on BDs/HD-DVDs
  170. Duration                                 : 2 h 49 min
  171. Bit rate                                 : 10.9 kb/s
  172. Count of elements                        : 3741
  173. Stream size                              : 13.3 MiB (0%)
  174. Language                                 : Chinese
  175. Default                                  : No
  176. Forced                                   : No
  177. Menu
  178. 00:00:00.000                             : en:Chapter 01
  179. 00:01:13.698                             : en:Chapter 02
  180. 00:02:20.014                             : en:Chapter 03
  181. 00:04:46.369                             : en:Chapter 04
  182. 00:07:24.944                             : en:Chapter 05
  183. 00:10:45.853                             : en:Chapter 06
  184. 00:14:28.993                             : en:Chapter 07
  185. 00:18:39.368                             : en:Chapter 08
  186. 00:22:50.619                             : en:Chapter 09
  187. 00:24:28.842                             : en:Chapter 10
  188. 00:29:41.112                             : en:Chapter 11
  189. 00:32:35.745                             : en:Chapter 12
  190. 00:35:00.306                             : en:Chapter 13
  191. 00:36:38.487                             : en:Chapter 14
  192. 00:38:53.664                             : en:Chapter 15
  193. 00:43:50.044                             : en:Chapter 16
  194. 00:49:25.712                             : en:Chapter 17
  195. 00:53:43.428                             : en:Chapter 18
  196. 00:56:52.617                             : en:Chapter 19
  197. 01:02:51.517                             : en:Chapter 20
  198. 01:04:34.704                             : en:Chapter 21
  199. 01:09:10.354                             : en:Chapter 22
  200. 01:10:53.332                             : en:Chapter 23
  201. 01:12:47.363                             : en:Chapter 24
  202. 01:14:36.513                             : en:Chapter 25
  203. 01:17:13.629                             : en:Chapter 26
  204. 01:18:53.562                             : en:Chapter 27
  205. 01:24:59.719                             : en:Chapter 28
  206. 01:28:06.322                             : en:Chapter 29
  207. 01:30:18.162                             : en:Chapter 30
  208. 01:33:20.803                             : en:Chapter 31
  209. 01:38:12.011                             : en:Chapter 32
  210. 01:40:14.383                             : en:Chapter 33
  211. 01:41:27.915                             : en:Chapter 34
  212. 01:42:48.787                             : en:Chapter 35
  213. 01:44:40.899                             : en:Chapter 36
  214. 01:50:09.227                             : en:Chapter 37
  215. 01:52:43.756                             : en:Chapter 38
  216. 01:55:18.494                             : en:Chapter 39
  217. 02:00:15.082                             : en:Chapter 40
  218. 02:03:43.707                             : en:Chapter 41
  219. 02:07:28.641                             : en:Chapter 42
  220. 02:11:37.180                             : en:Chapter 43
  221. 02:15:15.315                             : en:Chapter 44
  222. 02:16:02.154                             : en:Chapter 45
  223. 02:18:45.275                             : en:Chapter 46
  224. 02:21:55.465                             : en:Chapter 47
  225. 02:22:51.813                             : en:Chapter 48
  226. 02:25:35.226                             : en:Chapter 49
  227. 02:26:13.264                             : en:Chapter 50
  228. 02:29:18.783                             : en:Chapter 51
  229. 02:34:45.985                             : en:Chapter 52
  230. 02:36:02.978                             : en:Chapter 53
  231. 02:39:41.154                             : en:Chapter 54
  232. 02:41:54.454                             : en:Chapter 55
  233. 02:43:48.527                             : en:Chapter 56
  234. 02:45:31.379                             : en:Chapter 57
  235. 02:49:11.766                             : en:Chapter 58
  236. 02:52:49.317                             : en:Chapter 59
  237. 02:54:01.639                             : en:Chapter 60





此处一般会放置磁力链或种子下载链接,不过此链接需要注册会员才能看到,点击“立即注册”
磁力链下载【下载链接仅对注册会员开放,登陆后可见】
BT9527电影天堂 1、BT9527电影天堂提供的BT文件均来源于互联网抓取,只供网友学习交流、技术提升使用。
2、我们遵守BitTorrent点对点协议原则,任何版权问题请联系原资源发布商,我们不处理任何版权纠纷,谢谢!如有争议请联系邮箱:BT9527#hotmail.com(#换成@)
3、如果您发现某页面或地址有错误,请联系站长邮箱BT9527#hotmail.com(#换成@),我们会尽快处理。您的热心是对BT9527电影天堂最大的支持。
4、本站建议去正规影院观看电影以支持电影行业发展。
最新回复 (0)

你可以在 登录 or 注册 后,对此帖发表评论!

返回
发新帖