雷玛根大桥[国英多音轨/中英字幕].The.Bridge.at.Remagen.1969.BluRay.1080p.x265.10bit.2Audio-MiniHD 3.97GB

版主小s 19天前 89

✔资源类型:暂未分类   ✔电影年份:更 早   ✔电影地区:欧美   ✔电影分类:剧情

◎译  名 雷玛根大桥 / 决战雷马根大桥 / 莱茵大桥 / 铁桥保卫战
◎片  名 The Bridge at Remagen
◎年  代 1969
◎产  地 美国
◎类  别 剧情 / 动作 / 战争
◎语  言 英语 / 德语
◎上映日期 1969-08-27
◎IMDb链接 https://www.imdb.com/title/tt0064110/
◎豆瓣评分 7.5/10 (716人评价)
◎豆瓣链接 https://movie.douban.com/subject/1293874/
◎片  长 115 分钟
◎导  演 约翰·吉勒明 John Guillermin (id:1041544)
◎编  剧 理查德·耶茨 Richard Yates (id:1005394)
       威廉·罗伯茨 William Roberts (id:1140781)
       罗杰·伊尔松 Roger O. Hirson (id:1047010)
◎演  员 乔治·席格 George Segal (id:1007046)
       罗伯特·沃恩 Robert Vaughn (id:1041157)
       本·戈扎那 Ben Gazzara (id:1049792)
       布拉福德·迪尔曼 Bradford Dillman (id:1002826)
       E.G.马绍尔 E.G. Marshall (id:1117661)
       彼得·范·埃克 Peter van Eyck (id:1012573)
       汉斯·克里斯蒂安·布勒希 Hans Christian Blech (id:1065965)
       海因茨·莱纳克 Heinz Reincke (id:1019285)
       约阿希姆.汉森 Joachim Hansen (id:1102067)
       索妮娅·齐曼 Sonja Ziemann (id:1164416)
       Anna Ga?l Anna Ga?l (id:1095646)
       Vít Olmer Vít Olmer (id:1020071)
       博·霍普金斯 Bo Hopkins (id:1007068)
       Robert Logan Robert Logan (id:1018456)
       马特·克拉克 Matt Clark (id:1036758)
       Steve Sandor Steve Sandor (id:1138311)
       弗兰克·韦伯 Frank Webb (id:1162710)
       Richard Münch Richard Münch (id:1129541)
       昆特·迈斯纳 Günter Meisner (id:1124057)
       鲁道夫·耶利内克 Rudolf Jelínek (id:1105712)
       Fritz Ford Fritz Ford (id:1056500)
       Rolf Jahncke Rolf Jahncke (id:1110956)
       Zdenek Braunschl?ger Zdenek Braunschl?ger (id:1070899)
       Václav Neuzil Václav Neuzil (id:1134932)
        Vladimír T. Gottwald (id:1259041)
        Heikedine K?rting (id:1238089)
       Karel Mares Karel Mares (id:1025986)
       William T. Cartwright William T. Cartwright (id:1280207)
       林恩·斯塔马斯特 Lynn Stalmaster (id:1276256)

◎简  介
  网上关于这座桥的历史资料不甚详尽,关于影片的介绍更是简单的可怜,在看过的一些历史记录片中对这座桥大多也是寥寥几句带过——可是,希特勒曾说过这样一句话:“有两个“桥头堡”决定了我们德国的命运,一个在诺曼底,而另一个在雷马根!”                                       
                                    《雷玛根大桥》(Bridge at Remagen)——美国米高梅公司1969年拍摄;导 演:John Guillermin ;主 演:乔治·西格尔、本·吉扎拉、马歇尔等;片长115 分钟。                                       
                                    作为艺术作品,这部故事片加入了不少虚构的人物和情节,内涵相当丰富,想来许多朋友都已看过,国内还有译制版本,在下不多啰嗦......                                       
                                    只是想为同样对这座桥或这部影片感兴趣的朋友提供些参考!                                       
                                    雷马根大桥被美军占领,“如同一把手术刀,在德国人的莱茵河防线上切开了一道口子!”河对岸镇守厄尔波尔镇的100多名德军工兵发起了自杀式的冲锋,几乎全部阵亡!...
  1. ##### MediaInfo ######
  2. General
  3. Unique ID                                : 228909995271136593571965730373071221988 (0xAC36762156F16F939BC141A7486334E4)
  4. Complete name                            : The.Bridge.at.Remagen.1969.BluRay.1080p.x265.10bit.2Audio-MiniHD.mkv
  5. Format                                   : Matroska
  6. Format version                           : Version 4
  7. File size                                : 3.97 GiB
  8. Duration                                 : 1 h 56 min
  9. Overall bit rate                         : 4 875 kb/s
  10. Encoded date                             : UTC 2017-08-21 08:21:25
  11. Writing application                      : mkvmerge v11.0.0 ('Alive') 64bit
  12. Writing library                          : libebml v1.3.4 + libmatroska v1.4.5
  13. Video
  14. ID                                       : 1
  15. Format                                   : HEVC
  16. Format/Info                              : High Efficiency Video Coding
  17. Codec ID                                 : V_MPEGH/ISO/HEVC
  18. Duration                                 : 1 h 56 min
  19. Bit rate                                 : 4 266 kb/s
  20. Width                                    : 1 920 pixels
  21. Height                                   : 816 pixels
  22. Display aspect ratio                     : 2.35:1
  23. Frame rate mode                          : Constant
  24. Frame rate                               : 23.976 (24000/1001/53354) FPS
  25. Bits/(Pixel*Frame)                       : 0.114
  26. Stream size                              : 3.47 GiB (88%)
  27. Default                                  : Yes
  28. Forced                                   : No
  29. Audio #1
  30. ID                                       : 2
  31. Format                                   : AC-3
  32. Format/Info                              : Audio Coding 3
  33. Commercial name                          : Dolby Digital
  34. Codec ID                                 : A_AC3
  35. Duration                                 : 1 h 56 min
  36. Bit rate mode                            : Constant
  37. Bit rate                                 : 320 kb/s
  38. Channel(s)                               : 2 channels
  39. Channel layout                           : L R
  40. Sampling rate                            : 48.0 kHz
  41. Frame rate                               : 31.250 FPS (1536 SPF)
  42. Compression mode                         : Lossy
  43. Stream size                              : 267 MiB (7%)
  44. Language                                 : English
  45. Service kind                             : Complete Main
  46. Default                                  : Yes
  47. Forced                                   : No
  48. Audio #2
  49. ID                                       : 3
  50. Format                                   : AC-3
  51. Format/Info                              : Audio Coding 3
  52. Commercial name                          : Dolby Digital
  53. Codec ID                                 : A_AC3
  54. Duration                                 : 1 h 56 min
  55. Bit rate mode                            : Constant
  56. Bit rate                                 : 192 kb/s
  57. Channel(s)                               : 2 channels
  58. Channel layout                           : L R
  59. Sampling rate                            : 48.0 kHz
  60. Frame rate                               : 31.250 FPS (1536 SPF)
  61. Compression mode                         : Lossy
  62. Stream size                              : 160 MiB (4%)
  63. Language                                 : Chinese
  64. Service kind                             : Complete Main
  65. Default                                  : No
  66. Forced                                   : No
  67. Text #1
  68. ID                                       : 4
  69. Format                                   : PGS
  70. Muxing mode                              : zlib
  71. Codec ID                                 : S_HDMV/PGS
  72. Codec ID/Info                            : Picture based subtitle format used on BDs/HD-DVDs
  73. Language                                 : English
  74. Default                                  : Yes
  75. Forced                                   : No
  76. Text #2
  77. ID                                       : 5
  78. Format                                   : PGS
  79. Muxing mode                              : zlib
  80. Codec ID                                 : S_HDMV/PGS
  81. Codec ID/Info                            : Picture based subtitle format used on BDs/HD-DVDs
  82. Language                                 : Chinese
  83. Default                                  : No
  84. Forced                                   : No
  85. Text #3
  86. ID                                       : 6
  87. Format                                   : PGS
  88. Muxing mode                              : zlib
  89. Codec ID                                 : S_HDMV/PGS
  90. Codec ID/Info                            : Picture based subtitle format used on BDs/HD-DVDs
  91. Language                                 : Chinese
  92. Default                                  : No
  93. Forced                                   : No
  94. Text #4
  95. ID                                       : 7
  96. Format                                   : PGS
  97. Muxing mode                              : zlib
  98. Codec ID                                 : S_HDMV/PGS
  99. Codec ID/Info                            : Picture based subtitle format used on BDs/HD-DVDs
  100. Language                                 : Chinese
  101. Default                                  : No
  102. Forced                                   : No
  103. Text #5
  104. ID                                       : 8
  105. Format                                   : PGS
  106. Muxing mode                              : zlib
  107. Codec ID                                 : S_HDMV/PGS
  108. Codec ID/Info                            : Picture based subtitle format used on BDs/HD-DVDs
  109. Language                                 : Chinese
  110. Default                                  : No
  111. Forced                                   : No
  112. Menu
  113. 00:00:00.000                             : en:Chapter 01
  114. 00:05:55.813                             : en:Chapter 02
  115. 00:10:16.741                             : en:Chapter 03
  116. 00:15:41.899                             : en:Chapter 04
  117. 00:20:21.178                             : en:Chapter 05
  118. 00:24:29.092                             : en:Chapter 06
  119. 00:29:32.270                             : en:Chapter 07
  120. 00:34:16.179                             : en:Chapter 08
  121. 00:39:48.719                             : en:Chapter 09
  122. 00:42:33.551                             : en:Chapter 10
  123. 00:48:16.268                             : en:Chapter 11
  124. 00:53:03.805                             : en:Chapter 12
  125. 00:58:30.924                             : en:Chapter 13
  126. 01:02:38.796                             : en:Chapter 14
  127. 01:07:43.976                             : en:Chapter 15
  128. 01:11:51.307                             : en:Chapter 16
  129. 01:17:38.403                             : en:Chapter 17
  130. 01:23:08.233                             : en:Chapter 18
  131. 01:29:45.588                             : en:Chapter 19
  132. 01:32:52.942                             : en:Chapter 20
  133. 01:37:58.706                             : en:Chapter 21
  134. 01:41:29.792                             : en:Chapter 22
  135. 01:46:04.107                             : en:Chapter 23
  136. 01:52:38.793                             : en:Chapter 24





此处一般会放置磁力链或种子下载链接,不过此链接需要注册会员才能看到,点击“立即注册”
磁力链下载【下载链接仅对注册会员开放,登陆后可见】
BT9527电影天堂 1、BT9527电影天堂提供的BT文件均来源于互联网抓取,只供网友学习交流、技术提升使用。
2、我们遵守BitTorrent点对点协议原则,任何版权问题请联系原资源发布商,我们不处理任何版权纠纷,谢谢!如有争议请联系邮箱:BT9527#hotmail.com(#换成@)
3、如果您发现某页面或地址有错误,请联系站长邮箱BT9527#hotmail.com(#换成@),我们会尽快处理。您的热心是对BT9527电影天堂最大的支持。
4、本站建议去正规影院观看电影以支持电影行业发展。
最新回复 (0)

你可以在 登录 or 注册 后,对此帖发表评论!

返回
发新帖