阿拉伯的劳伦斯[国英多音轨/中英字幕].Lawrence.of.Arabia.1962.BluRay.1080p.x265.10bit.2Audio-MiniHD 14.33GB

版主小s 13天前 76

✔资源类型:暂未分类   ✔电影年份:更 早   ✔电影地区:欧美   ✔电影分类:剧情

◎译  名 阿拉伯的劳伦斯 / 沙漠枭雄(港) / 阿拉伯的罗伦斯
◎片  名 Lawrence of Arabia
◎年  代 1962
◎产  地 英国
◎类  别 剧情 / 传记 / 冒险
◎语  言 英语 / 阿拉伯语 / 土耳其语
◎上映日期 1962-12-10(英国)
◎IMDb链接 https://www.imdb.com/title/tt0056172/
◎豆瓣评分 8.7/10 (45268人评价)
◎豆瓣链接 https://movie.douban.com/subject/1292349/
◎片  长 216分钟
◎导  演 大卫·里恩 David Lean (id:1002783)
◎编  剧 T·E·劳伦斯 T.E. Lawrence (id:1023556)
       罗伯特·鲍特 Robert Bolt (id:1023062)
       迈克尔·威尔逊 Michael Wilson (id:1160972)
◎演  员 彼得·奥图尔 Peter O'Toole (id:1025208)
       亚历克·吉尼斯 Alec Guinness (id:1000109)
       安东尼·奎恩 Anthony Quinn (id:1048161)
       杰克·霍金斯 Jack Hawkins (id:1049902)
       奥马尔·沙里夫 Omar Sharif (id:1002711)
       何塞·费勒 José Ferrer (id:1013979)
       安东尼·奎尔 Anthony Quayle (id:1050097)
       克劳德·雷恩斯 Claude Rains (id:1041209)
       阿瑟·肯尼迪 Arthur Kennedy (id:1007117)
       唐纳德·沃尔菲 Donald Wolfit (id:1160944)
       I·S·乔哈尔 I.S. Johar (id:1105528)
       米歇尔·雷 Michel Ray (id:1147453)
       大卫·里恩 David Lean (id:1002783)
       齐亚·莫希丁 Zia Mohyeddin (id:1125566)
       罗伊史蒂文 Roy Stevens (id:1298414)
       大卫·里恩 David Lean (id:1002783)
       Robert A. Harris Robert A. Harris (id:1276247)
       莫里斯·雅尔 Maurice Jarre (id:1050191)
       弗雷迪·扬 Freddie Young (id:1028482)
       安妮·考特斯 Anne V. Coates (id:1037289)
       达里奥·西蒙尼 Dario Simoni (id:1297647)
       安东尼·马斯特斯 Anthony Masters (id:1291241)
       菲利斯·达尔顿 Phyllis Dalton (id:1281746)
       罗伊史蒂文 Roy Stevens (id:1298414)

◎简  介
  1916年,阿拉伯大起义爆发。 英军中尉 Lawrence(Peter O'Toole 饰)受命登上阿拉伯半岛之后,决定带领阿拉伯人夺取亚喀巴。在穿越沙漠的过程中, Lawrence 力排众议孤身返回搭救了失踪的 Gasim(I.S. Johar 饰)。此举赢得了众人的尊敬,Ali ibn el Kharish(Omar Sharif 饰)沙里夫甚至让 Lawrence 换上了沙里夫的长袍,而 Lawrence 也欣然接受。可是阿拉伯部落间并不和睦,Harith 部的 Gasim 杀了 Howeitat 部的人,双方剑拔弩张。为了平息争端,Lawrence 亲手处决了 Gasim,而杀人的快感却让 Lawrence 感到不安。成功夺取亚喀巴之后,Lawrence 驼不停蹄地穿越西奈半岛回到开罗。Allenby(Jack Hawkins 饰)将军大喜过...

◎获奖情况 (共16项)
  第35届奥斯卡金像奖 (1963)
  最佳影片
   └──萨姆·斯皮格尔 (id:1041774)
  最佳导演
   └──大卫·里恩 (id:1002783)
  最佳男主角(提名)
   └──彼得·奥图尔 (id:1025208)
  最佳男配角(提名)
   └──奥马尔·沙里夫 (id:1002711)
  最佳改编剧本(提名)
  彩色片最佳摄影
   └──弗雷迪·扬 (id:1028482)
  最佳剪辑
   └──安妮·考特斯 (id:1037289)
  最佳音响
   └──约翰·科克斯 (id:1074208)
  彩色片最佳艺术指导和布景
  最佳配乐
   └──莫里斯·雅尔 (id:1050191)

  第20届金球奖 (1963)
  电影类 最佳剧情片
  电影类 最佳导演
   └──大卫·里恩 (id:1002783)
  电影类 剧情片最佳男主角(提名)
  电影类 最佳男配角
   └──奥马尔·沙里夫 (id:1002711)
  电影类 最佳原创配乐(提名)
   └──莫里斯·雅尔 (id:1050191)
  电影类 彩色片最佳摄影
   └──弗雷迪·扬 (id:1028482)

  1. ##### MediaInfo ######
  2. General
  3. Unique ID                                : 198656680651016188398587561052823018070 (0x9573E28ED332C5768250483DE056DA56)
  4. Complete name                            : Lawrence.of.Arabia.1962.BluRay.1080p.x265.10bit.2Audio-MiniHD.mkv
  5. Format                                   : Matroska
  6. Format version                           : Version 4
  7. File size                                : 14.3 GiB
  8. Duration                                 : 3 h 47 min
  9. Overall bit rate                         : 9 035 kb/s
  10. Encoded date                             : UTC 2017-06-26 10:54:38
  11. Writing application                      : mkvmerge v11.0.0 ('Alive') 64bit
  12. Writing library                          : libebml v1.3.4 + libmatroska v1.4.5
  13. Video
  14. ID                                       : 1
  15. Format                                   : HEVC
  16. Format/Info                              : High Efficiency Video Coding
  17. Codec ID                                 : V_MPEGH/ISO/HEVC
  18. Duration                                 : 3 h 47 min
  19. Bit rate                                 : 8 023 kb/s
  20. Width                                    : 1 920 pixels
  21. Height                                   : 872 pixels
  22. Display aspect ratio                     : 2.2:1
  23. Frame rate mode                          : Constant
  24. Frame rate                               : 23.976 (24000/1001/53354) FPS
  25. Bits/(Pixel*Frame)                       : 0.200
  26. Stream size                              : 12.7 GiB (89%)
  27. Default                                  : Yes
  28. Forced                                   : No
  29. Audio #1
  30. ID                                       : 2
  31. Format                                   : AC-3
  32. Format/Info                              : Audio Coding 3
  33. Commercial name                          : Dolby Digital
  34. Codec ID                                 : A_AC3
  35. Duration                                 : 3 h 47 min
  36. Bit rate mode                            : Constant
  37. Bit rate                                 : 640 kb/s
  38. Channel(s)                               : 6 channels
  39. Channel layout                           : L R C LFE Ls Rs
  40. Sampling rate                            : 48.0 kHz
  41. Frame rate                               : 31.250 FPS (1536 SPF)
  42. Compression mode                         : Lossy
  43. Stream size                              : 1.01 GiB (7%)
  44. Language                                 : English
  45. Service kind                             : Complete Main
  46. Default                                  : Yes
  47. Forced                                   : No
  48. Audio #2
  49. ID                                       : 3
  50. Format                                   : AC-3
  51. Format/Info                              : Audio Coding 3
  52. Commercial name                          : Dolby Digital
  53. Codec ID                                 : A_AC3
  54. Duration                                 : 3 h 47 min
  55. Bit rate mode                            : Constant
  56. Bit rate                                 : 192 kb/s
  57. Channel(s)                               : 2 channels
  58. Channel layout                           : L R
  59. Sampling rate                            : 48.0 kHz
  60. Frame rate                               : 31.250 FPS (1536 SPF)
  61. Compression mode                         : Lossy
  62. Stream size                              : 312 MiB (2%)
  63. Language                                 : Chinese
  64. Service kind                             : Complete Main
  65. Default                                  : No
  66. Forced                                   : No
  67. Text #1
  68. ID                                       : 4
  69. Format                                   : PGS
  70. Muxing mode                              : zlib
  71. Codec ID                                 : S_HDMV/PGS
  72. Codec ID/Info                            : Picture based subtitle format used on BDs/HD-DVDs
  73. Language                                 : English
  74. Default                                  : Yes
  75. Forced                                   : No
  76. Text #2
  77. ID                                       : 5
  78. Format                                   : PGS
  79. Muxing mode                              : zlib
  80. Codec ID                                 : S_HDMV/PGS
  81. Codec ID/Info                            : Picture based subtitle format used on BDs/HD-DVDs
  82. Language                                 : Chinese
  83. Default                                  : No
  84. Forced                                   : No
  85. Text #3
  86. ID                                       : 6
  87. Format                                   : PGS
  88. Muxing mode                              : zlib
  89. Codec ID                                 : S_HDMV/PGS
  90. Codec ID/Info                            : Picture based subtitle format used on BDs/HD-DVDs
  91. Language                                 : Chinese
  92. Default                                  : No
  93. Forced                                   : No
  94. Menu
  95. 00:00:00.000                             : en:Chapter 01
  96. 00:09:31.070                             : en:Chapter 02
  97. 00:14:18.524                             : en:Chapter 03
  98. 00:17:43.811                             : en:Chapter 04
  99. 00:26:44.644                             : en:Chapter 05
  100. 00:36:45.993                             : en:Chapter 06
  101. 00:43:51.002                             : en:Chapter 07
  102. 00:52:22.805                             : en:Chapter 08
  103. 01:01:22.010                             : en:Chapter 09
  104. 01:13:05.381                             : en:Chapter 10
  105. 01:19:03.488                             : en:Chapter 11
  106. 01:22:49.965                             : en:Chapter 12
  107. 01:29:39.497                             : en:Chapter 13
  108. 01:35:14.625                             : en:Chapter 14
  109. 01:43:10.266                             : en:Chapter 15
  110. 01:46:48.568                             : en:Chapter 16
  111. 01:52:28.449                             : en:Chapter 17
  112. 02:00:46.780                             : en:Chapter 18
  113. 02:07:58.628                             : en:Chapter 19
  114. 02:14:28.810                             : en:Chapter 20
  115. 02:19:24.354                             : en:Chapter 21
  116. 02:30:05.578                             : en:Chapter 22
  117. 02:37:34.403                             : en:Chapter 23
  118. 02:43:36.722                             : en:Chapter 24
  119. 02:51:11.843                             : en:Chapter 25
  120. 02:58:57.933                             : en:Chapter 26
  121. 03:05:25.863                             : en:Chapter 27
  122. 03:14:18.354                             : en:Chapter 28
  123. 03:18:10.003                             : en:Chapter 29
  124. 03:27:37.027                             : en:Chapter 30
  125. 03:37:44.509                             : en:Chapter 31
  126. 03:43:19.968                             : en:Chapter 32





此处一般会放置磁力链或种子下载链接,不过此链接需要注册会员才能看到,点击“立即注册”
磁力链下载【下载链接仅对注册会员开放,登陆后可见】
BT9527电影天堂 1、BT9527电影天堂提供的BT文件均来源于互联网抓取,只供网友学习交流、技术提升使用。
2、我们遵守BitTorrent点对点协议原则,任何版权问题请联系原资源发布商,我们不处理任何版权纠纷,谢谢!如有争议请联系邮箱:BT9527#hotmail.com(#换成@)
3、如果您发现某页面或地址有错误,请联系站长邮箱BT9527#hotmail.com(#换成@),我们会尽快处理。您的热心是对BT9527电影天堂最大的支持。
4、本站建议去正规影院观看电影以支持电影行业发展。
最新回复 (0)

你可以在 登录 or 注册 后,对此帖发表评论!

返回
发新帖