阴阳魔界[中英字幕].Twilight.Zone.The.Movie.1983.BluRay.1080p.x265.10bit-MiniHD 3.72GB

版主小s 10天前 126

✔资源类型:暂未分类   ✔电影年份:更 早   ✔电影地区:欧美   ✔电影分类:科幻

◎译  名 阴阳魔界 / 阴阳魔界 电影版 / 迷离境界 / 朦胧地带
◎片  名 Twilight Zone: The Movie
◎年  代 1983
◎产  地 美国
◎类  别 科幻 / 恐怖
◎语  言 英语 / 法语 / 德语 / 越南语
◎上映日期 1983-06-24
◎IMDb链接 https://www.imdb.com/title/tt0086491/
◎豆瓣评分 7.1/10 (2952人评价)
◎豆瓣链接 https://movie.douban.com/subject/1300801/
◎片  长 101 分钟
◎导  演 乔·丹特 Joe Dante (id:1036597)
       约翰·兰迪斯 John Landis (id:1025259)
       乔治·米勒 George Miller (id:1056046)
       史蒂文·斯皮尔伯格 Steven Spielberg (id:1054440)
◎编  剧 约翰·兰迪斯 John Landis (id:1025259)
       乔治·克莱顿·约翰逊 George Clayton Johnson (id:1010014)
       理查德·麦瑟森 Richard Matheson (id:1032249)
       梅丽莎·马西森 Melissa Mathison (id:1018183)
       杰罗姆·比克斯比 Jerome Bixby (id:1014245)
       罗德·塞林 Rod Serling (id:1014051)
◎演  员 丹·艾克罗伊德 Dan Aykroyd (id:1010562)
       艾伯特·布鲁克斯 Albert Brooks (id:1010594)
       维克·莫罗 Vic Morrow (id:1007053)
       南茜·卡特莱特 Nancy Cartwright (id:1041172)
       罗德·塞林 Rod Serling (id:1014051)
       约翰·利思戈 John Lithgow (id:1027824)
       Scott Nemes Scott Nemes (id:1293044)
       Jeffrey Lampert Jeffrey Lampert (id:1289332)
       Tanya Fenmore Tanya Fenmore (id:1283561)
       埃迪·多诺 Eddy Donno (id:1282590)
       户田惠子 Keiko Toda (id:1051741)
       凯瑟琳·肯尼迪 Kathleen Kennedy (id:1019168)
       迈克尔·芬内尔 Michael Finnell (id:1283752)
       杰瑞·高德史密斯 Jerry Goldsmith (id:1007116)
       蒂娜·赫希 Tina Hirsch (id:1286682)
       Barbara Krieger Barbara Krieger (id:1289027)
       詹姆斯·D·比斯 James D. Bissell (id:1278696)
       詹姆斯·H·斯宾塞 James H. Spencer (id:1298136)
       德博拉·林恩·斯科特 Deborah Lynn Scott (id:1297071)
       小约翰·M·艾略特 John M. Elliott Jr. (id:1283124)
       Margaret Prentice Margaret Prentice (id:1278536)
       罗伯·博汀 Rob Bottin (id:1276191)
       Pat Kehoe Pat Kehoe (id:1288313)
       丹尼尔·艾提奥斯 Daniel Attias (id:1276387)
       阿兰·史密西 Alan Smithee (id:1276199)
       罗科·焦弗雷 Rocco Gioffre (id:1284912)
       格雷戈里·杰恩 Gregory Jein (id:1287652)
       彼得·库兰 Peter Kuran (id:1289126)
       马克·萨利文 Mark Sullivan (id:1298630)
       吉姆·丹弗斯 Jim Danforth (id:1281771)

◎简  介
  电影由乔治·米勒、乔·丹特、约翰·兰迪斯和史蒂文·斯皮尔伯格四位导演所拍摄的四部短片所组成。                                    
                                某一天,种族歧视者比尔(维克·莫罗 Vic Morrow 饰)乘坐着时光旅行机回到了过去,可是,在那里等着他的,却是被歧视和侮辱的可怕命运。                                    
                                没有人知道布鲁先生(斯加特克罗索斯 Scatman Crothers 饰)从哪里来,他又有着怎样的过去,人们只知道,这个神秘的男人拥有能够让人返老还童的奇妙魔力。                                    
                                海伦(凯瑟琳·奎南 Kathleen Quinlan 饰)遇见了名叫安东尼(Jeremy Licht 饰)的男孩,在他平凡的外表下面,隐藏了一个惊人又残酷的秘密。                                    
                                没有人相信神经兮兮的瓦伦汀(约翰·利特高 John Lithgow 饰)的所言所语,因为他竟然声称一只巨大的怪兽出现在了半空中将一架飞机撕成两半,然而他的话真的只是胡言乱语吗?
  1. ##### MediaInfo ######
  2. General
  3. Unique ID                                : 230194073516816954611286591536893833768 (0xAD2DC41360355584881F3D99341CB228)
  4. Complete name                            : Twilight.Zone.The.Movie.1983.BluRay.1080p.x265.10bit-MiniHD.mkv
  5. Format                                   : Matroska
  6. Format version                           : Version 4
  7. File size                                : 3.72 GiB
  8. Duration                                 : 1 h 41 min
  9. Overall bit rate                         : 5 265 kb/s
  10. Encoded date                             : UTC 2017-06-30 01:57:54
  11. Writing application                      : mkvmerge v11.0.0 ('Alive') 64bit
  12. Writing library                          : libebml v1.3.4 + libmatroska v1.4.5
  13. Video
  14. ID                                       : 1
  15. Format                                   : HEVC
  16. Format/Info                              : High Efficiency Video Coding
  17. Codec ID                                 : V_MPEGH/ISO/HEVC
  18. Duration                                 : 1 h 41 min
  19. Bit rate                                 : 4 576 kb/s
  20. Width                                    : 1 920 pixels
  21. Height                                   : 1 080 pixels
  22. Display aspect ratio                     : 16:9
  23. Frame rate mode                          : Constant
  24. Frame rate                               : 23.976 (24000/1001/53354) FPS
  25. Bits/(Pixel*Frame)                       : 0.092
  26. Stream size                              : 3.24 GiB (87%)
  27. Default                                  : Yes
  28. Forced                                   : No
  29. Audio
  30. ID                                       : 2
  31. Format                                   : AC-3
  32. Format/Info                              : Audio Coding 3
  33. Commercial name                          : Dolby Digital
  34. Codec ID                                 : A_AC3
  35. Duration                                 : 1 h 41 min
  36. Bit rate mode                            : Constant
  37. Bit rate                                 : 640 kb/s
  38. Channel(s)                               : 6 channels
  39. Channel layout                           : L R C LFE Ls Rs
  40. Sampling rate                            : 48.0 kHz
  41. Frame rate                               : 31.250 FPS (1536 SPF)
  42. Compression mode                         : Lossy
  43. Stream size                              : 464 MiB (12%)
  44. Language                                 : English
  45. Service kind                             : Complete Main
  46. Default                                  : Yes
  47. Forced                                   : No
  48. Text #1
  49. ID                                       : 3
  50. Format                                   : PGS
  51. Muxing mode                              : zlib
  52. Codec ID                                 : S_HDMV/PGS
  53. Codec ID/Info                            : Picture based subtitle format used on BDs/HD-DVDs
  54. Duration                                 : 1 h 40 min
  55. Bit rate                                 : 14.9 kb/s
  56. Count of elements                        : 2587
  57. Stream size                              : 10.7 MiB (0%)
  58. Language                                 : English
  59. Default                                  : Yes
  60. Forced                                   : No
  61. Text #2
  62. ID                                       : 4
  63. Format                                   : PGS
  64. Muxing mode                              : zlib
  65. Codec ID                                 : S_HDMV/PGS
  66. Codec ID/Info                            : Picture based subtitle format used on BDs/HD-DVDs
  67. Duration                                 : 1 h 35 min
  68. Bit rate                                 : 16.4 kb/s
  69. Count of elements                        : 2322
  70. Stream size                              : 11.3 MiB (0%)
  71. Language                                 : Chinese
  72. Default                                  : No
  73. Forced                                   : No
  74. Text #3
  75. ID                                       : 5
  76. Format                                   : PGS
  77. Muxing mode                              : zlib
  78. Codec ID                                 : S_HDMV/PGS
  79. Codec ID/Info                            : Picture based subtitle format used on BDs/HD-DVDs
  80. Duration                                 : 1 h 35 min
  81. Bit rate                                 : 17.0 kb/s
  82. Count of elements                        : 2322
  83. Stream size                              : 11.7 MiB (0%)
  84. Language                                 : Chinese
  85. Default                                  : No
  86. Forced                                   : No
  87. Menu
  88. 00:00:00.000                             : en:Chapter 01
  89. 00:05:32.165                             : en:Chapter 02
  90. 00:08:07.195                             : en:Chapter 03
  91. 00:12:33.043                             : en:Chapter 04
  92. 00:18:45.415                             : en:Chapter 05
  93. 00:21:05.597                             : en:Chapter 06
  94. 00:24:05.360                             : en:Chapter 07
  95. 00:26:38.346                             : en:Chapter 08
  96. 00:29:22.927                             : en:Chapter 09
  97. 00:35:54.235                             : en:Chapter 10
  98. 00:39:35.456                             : en:Chapter 11
  99. 00:42:30.047                             : en:Chapter 12
  100. 00:47:34.351                             : en:Chapter 13
  101. 00:50:01.748                             : en:Chapter 14
  102. 00:54:30.100                             : en:Chapter 15
  103. 00:58:10.904                             : en:Chapter 16
  104. 01:01:12.460                             : en:Chapter 17
  105. 01:03:47.907                             : en:Chapter 18
  106. 01:07:17.992                             : en:Chapter 19
  107. 01:09:42.928                             : en:Chapter 20
  108. 01:13:43.085                             : en:Chapter 21
  109. 01:17:59.049                             : en:Chapter 22
  110. 01:23:46.521                             : en:Chapter 23
  111. 01:26:44.115                             : en:Chapter 24
  112. 01:31:03.875                             : en:Chapter 25
  113. 01:33:16.007                             : en:Chapter 26
  114. 01:35:26.512                             : en:Chapter 27
  115. 01:41:15.152                             : en:Chapter 28





此处一般会放置磁力链或种子下载链接,不过此链接需要注册会员才能看到,点击“立即注册”
磁力链下载【下载链接仅对注册会员开放,登陆后可见】
BT9527电影天堂 1、BT9527电影天堂提供的BT文件均来源于互联网抓取,只供网友学习交流、技术提升使用。
2、我们遵守BitTorrent点对点协议原则,任何版权问题请联系原资源发布商,我们不处理任何版权纠纷,谢谢!如有争议请联系邮箱:BT9527#hotmail.com(#换成@)
3、如果您发现某页面或地址有错误,请联系站长邮箱BT9527#hotmail.com(#换成@),我们会尽快处理。您的热心是对BT9527电影天堂最大的支持。
4、本站建议去正规影院观看电影以支持电影行业发展。
最新回复 (0)

你可以在 登录 or 注册 后,对此帖发表评论!

返回
发新帖