最佳拍档[国粤多音轨/简繁英字幕].Aces.Go.Places.1982.1080p.BluRay.DTS.2Audio.x265-10bit-ENTHD 6.37GB

版主小s 3月前 219

✔资源类型:暂未分类   ✔电影年份:更 早   ✔电影地区:香港   ✔电影分类:喜剧

◎译  名 最佳拍档 / 最佳拍档之光头神探 / 光头神探贼状元 / Aces Go Places / Mad Mission
◎片  名 最佳拍檔
◎年  代 1982
◎产  地 中国香港
◎类  别 喜剧 / 动作
◎语  言 粤语
◎上映日期 1982-01-16(中国香港)
◎IMDb链接 https://www.imdb.com/title/tt0084955/
◎豆瓣评分 7.7/10 (31317人评价)
◎豆瓣链接 https://movie.douban.com/subject/1306011/
◎片  长 93分钟
◎导  演 曾志伟 Eric Tsang (id:1002862)
◎编  剧 黄百鸣 Raymond Wong (id:1275277)
◎演  员 许冠杰 Samuel Hui (id:1102963)
       麦嘉 Karl Maka (id:1274986)
       张艾嘉 Sylvia Chang (id:1012646)
       石天 Dean Shek (id:1146001)
       古嘉露 Carroll Gordon  (id:1326327)
       徐克 Hark Tsui (id:1007152)
       曹达华 Tat-wah Cho (id:1070438)
       林子祥 George Lam (id:1029253)
       黄百鸣 Raymond Wong (id:1275277)
       陈星 Sing Chen (id:1033057)
       吴浣仪 Yuen Yee Ng (id:1324439)
       陈令智 Lindzay Chan (id:1275061)
       余慕莲 Mo-Lin Yu (id:1345424)
       冯敬文 Ging Man Fung (id:1341397)
       何柏光 Pak-Kwong Ho (id:1350540)
       金彪 Biu Gam (id:1363426)
       李鹏飞 Pang-Fei Lee (id:1340651)
       罗伯特·荷斯顿 Robert Houston (id:1466262)
       戚毅雄 Ngai-Hung Chik (id:1434745)
       彭润祥 Yun-chiang Peng (id:1431212)
       杜少明 Siu-Ming To (id:1360414)
       成运安 Shing Gwan-On (id:1407239)
       泰山 San Tai (id:1423731)
       冯润泉 Yun-Chuen Fung (id:1423739)
       黄百鸣 Raymond Wong (id:1275277)
       麦嘉 Karl Maka (id:1274986)
       石天 Dean Shek (id:1146001)
       许冠杰 Samuel Hui (id:1102963)
       黄岳泰 Arthur Wong (id:1301185)
       陈俊杰 Henry Chan (id:1280422)
       张叔平 William Chang (id:1274369)
       黄百鸣 Raymond Wong (id:1275277)
       黄锐民 Oliver Wong (id:1290844)
       柯星沛 Sing-Pui O (id:1288789)
       朱日红 Yat-Hung Chu (id:1330740)
       古嘉露 Carroll Gordon  (id:1326327)
       黎应就 Guy Lai (id:1345936)
       施介强 Gai-Keung Si (id:1356658)

◎简  介
  飞贼黑猫(许冠杰 饰)抢夺国际犯罪组织的钻石后借助多种工具溜之大吉,黑猫在现场遗留的白手套让香港警方误认为作案者是国际大盗“白手套”,警方请到追捕白手套多年的美国光头神探(麦嘉 饰)查案,并派出干练女警何东诗(张艾嘉 饰)协助。另一方面,钻石主人——意大利黑帮要求白手套正身抵港取回钻石。                                    
                                光头神探与黑猫不打不相识,威逼利诱之下,黑猫决定协助神探拿获白手套。三人小组为找回遗失的钻石盲打误撞惹来连串麻烦,黑猫终于拿到钻石之际,潜伏的白手套也同时出现了……

◎获奖情况 (共5项)
  第19届台北金马影展 (1982)
  金马奖 最佳剪辑(提名)
   └──周国忠 (id:1330746)

  第2届香港电影金像奖 (1983)
  最佳男主角
   └──麦嘉 (id:1274986)
  最佳女主角(提名)
   └──张艾嘉 (id:1012646)
  最佳原创电影音乐(提名)
   └──泰迪·罗宾 (id:1274243)
  最佳原创电影歌曲(提名)
   └──许冠杰 (id:1102963)

  1. ##### MediaInfo ######
  2. General
  3. Unique ID                                : 305812442894703379364016045531970003287 (0xE611558879EA89821C9DAE2FF15DE157)
  4. Complete name                            : Aces.Go.Places.1982.1080p.BluRay.DTS.2Audio.x265-10bit-ENTHD.mkv
  5. Format                                   : Matroska
  6. Format version                           : Version 4
  7. File size                                : 6.37 GiB
  8. Duration                                 : 1 h 33 min
  9. Overall bit rate                         : 9 740 kb/s
  10. Movie name                               : Aces Go Places 1982 1080p BluRay DTS 2Audio x265-10bit-HDS
  11. Encoded date                             : UTC 2022-06-15 00:03:52
  12. Writing application                      : mkvmerge v67.0.0 ('Under Stars') 64-bit
  13. Writing library                          : libebml v1.4.2 + libmatroska v1.6.4 / Lavf59.17.101
  14. Video
  15. ID                                       : 1
  16. Format                                   : HEVC
  17. Format/Info                              : High Efficiency Video Coding
  18. Format profile                           : Main 10@L5.1@High
  19. Codec ID                                 : V_MPEGH/ISO/HEVC
  20. Duration                                 : 1 h 33 min
  21. Bit rate                                 : 7 550 kb/s
  22. Width                                    : 1 920 pixels
  23. Height                                   : 816 pixels
  24. Display aspect ratio                     : 2.35:1
  25. Frame rate mode                          : Constant
  26. Frame rate                               : 23.976 (24000/1001/53354) FPS
  27. Color space                              : YUV
  28. Chroma subsampling                       : 4:2:0
  29. Bit depth                                : 10 bits
  30. Bits/(Pixel*Frame)                       : 0.201
  31. Stream size                              : 4.94 GiB (78%)
  32. Title                                    : GalenMao@HDSky
  33. Default                                  : No
  34. Forced                                   : No
  35. Audio #1
  36. ID                                       : 2
  37. Format                                   : DTS
  38. Format/Info                              : Digital Theater Systems
  39. Codec ID                                 : A_DTS
  40. Duration                                 : 1 h 33 min
  41. Bit rate mode                            : Constant
  42. Bit rate                                 : 1 509 kb/s
  43. Channel(s)                               : 6 channels
  44. Channel layout                           : C L R Ls Rs LFE
  45. Sampling rate                            : 48.0 kHz
  46. Frame rate                               : 93.750 FPS (512 SPF)
  47. Bit depth                                : 24 bits
  48. Compression mode                         : Lossy
  49. Stream size                              : 1 009 MiB (15%)
  50. Title                                    : Cantonese
  51. Language                                 : Chinese
  52. Default                                  : Yes
  53. Forced                                   : No
  54. Audio #2
  55. ID                                       : 3
  56. Format                                   : AC-3
  57. Format/Info                              : Audio Coding 3
  58. Commercial name                          : Dolby Digital
  59. Codec ID                                 : A_AC3
  60. Duration                                 : 1 h 33 min
  61. Bit rate mode                            : Constant
  62. Bit rate                                 : 640 kb/s
  63. Channel(s)                               : 6 channels
  64. Channel layout                           : L R C LFE Ls Rs
  65. Sampling rate                            : 48.0 kHz
  66. Frame rate                               : 31.250 FPS (1536 SPF)
  67. Compression mode                         : Lossy
  68. Stream size                              : 428 MiB (7%)
  69. Title                                    : Mandarin
  70. Language                                 : Chinese
  71. Service kind                             : Complete Main
  72. Default                                  : Yes
  73. Forced                                   : No
  74. Text #1
  75. ID                                       : 4
  76. Format                                   : PGS
  77. Muxing mode                              : zlib
  78. Codec ID                                 : S_HDMV/PGS
  79. Codec ID/Info                            : Picture based subtitle format used on BDs/HD-DVDs
  80. Duration                                 : 1 h 29 min
  81. Bit rate                                 : 39.4 kb/s
  82. Count of elements                        : 2536
  83. Stream size                              : 25.3 MiB (0%)
  84. Title                                    : ENG
  85. Language                                 : English
  86. Default                                  : Yes
  87. Forced                                   : No
  88. Text #2
  89. ID                                       : 5
  90. Format                                   : PGS
  91. Muxing mode                              : zlib
  92. Codec ID                                 : S_HDMV/PGS
  93. Codec ID/Info                            : Picture based subtitle format used on BDs/HD-DVDs
  94. Duration                                 : 1 h 29 min
  95. Bit rate                                 : 26.1 kb/s
  96. Count of elements                        : 2558
  97. Stream size                              : 16.8 MiB (0%)
  98. Title                                    : CHS
  99. Language                                 : Chinese
  100. Default                                  : Yes
  101. Forced                                   : No
  102. Text #3
  103. ID                                       : 6
  104. Format                                   : PGS
  105. Muxing mode                              : zlib
  106. Codec ID                                 : S_HDMV/PGS
  107. Codec ID/Info                            : Picture based subtitle format used on BDs/HD-DVDs
  108. Duration                                 : 1 h 29 min
  109. Bit rate                                 : 27.2 kb/s
  110. Count of elements                        : 2558
  111. Stream size                              : 17.5 MiB (0%)
  112. Title                                    : CHT
  113. Language                                 : Chinese
  114. Default                                  : Yes
  115. Forced                                   : No
  116. Menu
  117. 00:00:00.000                             : en:第 01 章
  118. 00:04:36.234                             : en:第 02 章
  119. 00:09:10.467                             : en:第 03 章
  120. 00:14:28.367                             : en:第 04 章
  121. 00:19:34.840                             : en:第 05 章
  122. 00:24:51.407                             : en:第 06 章
  123. 00:28:58.695                             : en:第 07 章
  124. 00:31:26.176                             : en:第 08 章
  125. 00:34:51.673                             : en:第 09 章
  126. 00:38:31.100                             : en:第 10 章
  127. 00:44:31.043                             : en:第 11 章
  128. 00:48:56.392                             : en:第 12 章
  129. 00:52:31.940                             : en:第 13 章
  130. 00:56:09.658                             : en:第 14 章
  131. 01:02:06.598                             : en:第 15 章
  132. 01:08:33.401                             : en:第 16 章
  133. 01:13:59.393                             : en:第 17 章
  134. 01:20:15.436                             : en:第 18 章
  135. 01:23:45.145                             : en:第 19 章
  136. 01:29:42.627                             : en:第 20 章





此处一般会放置磁力链或种子下载链接,不过此链接需要注册会员才能看到,点击“立即注册”
磁力链下载【下载链接仅对注册会员开放,登陆后可见】
BT9527电影天堂 1、BT9527电影天堂提供的BT文件均来源于互联网抓取,只供网友学习交流、技术提升使用。
2、我们遵守BitTorrent点对点协议原则,任何版权问题请联系原资源发布商,我们不处理任何版权纠纷,谢谢!如有争议请联系邮箱:BT9527#hotmail.com(#换成@)
3、如果您发现某页面或地址有错误,请联系站长邮箱BT9527#hotmail.com(#换成@),我们会尽快处理。您的热心是对BT9527电影天堂最大的支持。
4、本站建议去正规影院观看电影以支持电影行业发展。
最新回复 (0)

你可以在 登录 or 注册 后,对此帖发表评论!

返回
发新帖