闻香识女人[国英多音轨/中英字幕].Scent.of.a.Woman.1992.BluRay.1080p.x265.10bit.3Audio-MiniHD 9.60GB

版主小s 10天前 131

✔资源类型:暂未分类   ✔电影年份:更 早   ✔电影地区:欧美   ✔电影分类:剧情

◎译  名 闻香识女人 / 女人香 / 女人的芳香
◎片  名 Scent of a Woman
◎年  代 1992
◎产  地 美国
◎类  别 剧情
◎语  言 英语
◎上映日期 1992-12-23(美国)
◎IMDb链接 https://www.imdb.com/title/tt0105323/
◎豆瓣评分 9.1/10 (799219人评价)
◎豆瓣链接 https://movie.douban.com/subject/1298624/
◎片  长 157 分钟
◎导  演 马丁·布莱斯特 Martin Brest (id:1055265)
◎编  剧 博·古德曼 Bo Goldman (id:1050456)
       乔瓦尼·阿尔皮诺 Giovanni Arpino (id:1005934)
       迪诺·里西 Dino Risi (id:1016782)
       鲁杰罗·马卡里 Ruggero Maccari (id:1012808)
◎演  员 阿尔·帕西诺 Al Pacino (id:1054451)
       克里斯·奥唐纳 Chris O'Donnell (id:1009272)
       詹姆斯·瑞布霍恩 James Rebhorn (id:1049801)
       加布里埃尔·安瓦尔 Gabrielle Anwar (id:1004572)
       菲利普·塞默·霍夫曼 Philip Seymour Hoffman (id:1054394)
       理查德·文彻 Richard Venture (id:1157313)
       布莱德利·惠特福德 Bradley Whitford (id:1027158)
       罗谢尔·奥利弗 Rochelle Oliver (id:1132719)
       托德·路易斯 Todd Louiso (id:1004880)
       马特·史密斯 Matt Smith (id:1297909)
       吉恩·坎菲尔德 Gene Canfield (id:1342039)
       弗兰西丝·康罗伊 Frances Conroy (id:1040622)
       沈晓谦 Xiaoqian Shen (id:1347970)
       吴俊全 Junquan Wu (id:1328417)
       Dan Gifford Dan Gifford (id:1284835)
       弗朗西斯·斯威夫特 Francie Swift (id:1331302)
       朱恩·斯奎布 June Squibb (id:1154489)
       朗·埃达德 Ron Eldard (id:1031973)
       Leonard Gaines Leonard Gaines (id:1051000)
       J.T. Cromwell J.T. Cromwell (id:1071621)
       Peter Carew Peter Carew (id:1071911)
       安赫·道格 Anh Duong (id:1088404)
       Baxter Harris Baxter Harris (id:1093253)
       大卫·兰斯布里 David Lansbury (id:1109060)
       Jack Mulcahy Jack Mulcahy (id:1128837)
       Sally Murphy Sally Murphy (id:1133078)
       Michael Santoro Michael Santoro (id:1147168)
       罗纳德·施瓦里 Ronald L. Schwary (id:1297049)
       马丁·布莱斯特 Martin Brest (id:1055265)
       托马斯·纽曼 Thomas Newman (id:1027939)
       卡洛斯·加德尔 Carlos Gardel (id:1037438)
       Harvey Rosenstock Harvey Rosenstock (id:1296107)
       威廉·斯坦坎普 William Steinkamp (id:1019627)
       迈克尔·特罗尼克 Michael Tronick (id:1299544)
       埃伦·路易斯 Ellen Lewis (id:1289949)
       安杰洛·P·格雷厄姆 Angelo P. Graham (id:1285271)
       小乔治·德蒂塔 George DeTitta Jr. (id:1282314)
       卡尔·富勒顿 Carl Fullerton (id:1284349)
       艾兰·丹格里奥 Alan D'Angerio (id:1281682)
       Joseph Coscia Joseph Coscia (id:1070887)
       Allen Weisinger Allen Weisinger (id:1300632)
       罗伯特·拉登 Robert Laden (id:1289235)

◎简  介
  查理(克里斯?奥唐纳 Chris O'Donnell  饰)是一个普通的中学生,他因为见证着一件恶作剧但又不想出卖朋友,于是面临着一道艰难的选择题——要么坦白,要么被学校勒退。而史法兰(阿尔?帕西诺 Al Pacino  饰)是一个退伍军官,因为意外失明,人生从顶点的辉煌滑落谷底。                                    
                                自从两人的人生有了交集,命运的转折慢慢清晰。史法兰打算结束失去了意义的生活,于是在查理的陪伴下,尽情享受着人生最后一趟出行。他吃最美味的佳肴,买光鲜的汽车,在狭窄的街道上飚车,住在豪华的套房里,跟随陌生女子的袅袅香水味,跳一段优雅性感的探戈……极乐的疯狂后,他拿枪对准了自己的头颅。然而,查理声嘶力竭的劝阻改变了一切,曙光亦渐渐在这个老人心中重新升起,二人情深如父子。                                    
                                史法兰在学校礼堂激昂演说,挽救了查理的前途,讽刺了学校的伪善。二人在互相鼓舞中得到重生。

◎获奖情况 (共9项)
  第65届奥斯卡金像奖 (1993)
  最佳影片(提名)
   └──马丁·布莱斯特 (id:1055265)
  最佳导演(提名)
   └──马丁·布莱斯特 (id:1055265)
  最佳男主角
   └──阿尔·帕西诺 (id:1054451)
  最佳改编剧本(提名)
   └──博·古德曼 (id:1050456)

  第50届金球奖 (1993)
  电影类 最佳剧情片
  电影类 剧情片最佳男主角
   └──阿尔·帕西诺 (id:1054451)
  电影类 最佳男配角(提名)
   └──克里斯·奥唐纳 (id:1009272)
  电影类 最佳编剧
   └──博·古德曼 (id:1050456)

  第47届英国电影学院奖 (1994)
  电影奖 最佳改编剧本(提名)
   └──博·古德曼 (id:1050456)

  1. ##### MediaInfo ######
  2. General
  3. Unique ID                                : 170914562676154217072424626977948240703 (0x8094F28A0CF61616A14721995A670B3F)
  4. Complete name                            : Scent.of.a.Woman.1992.BluRay.1080p.x265.10bit.3Audio-MiniHD.mkv
  5. Format                                   : Matroska
  6. Format version                           : Version 4
  7. File size                                : 9.60 GiB
  8. Duration                                 : 2 h 36 min
  9. Overall bit rate                         : 8 780 kb/s
  10. Encoded date                             : UTC 2017-10-20 10:29:59
  11. Writing application                      : mkvmerge v11.0.0 ('Alive') 64bit
  12. Writing library                          : libebml v1.3.4 + libmatroska v1.4.5
  13. Video
  14. ID                                       : 1
  15. Format                                   : HEVC
  16. Format/Info                              : High Efficiency Video Coding
  17. Codec ID                                 : V_MPEGH/ISO/HEVC
  18. Duration                                 : 2 h 36 min
  19. Bit rate                                 : 7 672 kb/s
  20. Width                                    : 1 920 pixels
  21. Height                                   : 1 040 pixels
  22. Display aspect ratio                     : 1.85:1
  23. Frame rate mode                          : Constant
  24. Frame rate                               : 23.976 (24000/1001/53354) FPS
  25. Bits/(Pixel*Frame)                       : 0.160
  26. Stream size                              : 8.39 GiB (87%)
  27. Default                                  : Yes
  28. Forced                                   : No
  29. Audio #1
  30. ID                                       : 2
  31. Format                                   : AC-3
  32. Format/Info                              : Audio Coding 3
  33. Commercial name                          : Dolby Digital
  34. Codec ID                                 : A_AC3
  35. Duration                                 : 2 h 36 min
  36. Bit rate mode                            : Constant
  37. Bit rate                                 : 640 kb/s
  38. Channel(s)                               : 6 channels
  39. Channel layout                           : L R C LFE Ls Rs
  40. Sampling rate                            : 48.0 kHz
  41. Frame rate                               : 31.250 FPS (1536 SPF)
  42. Compression mode                         : Lossy
  43. Stream size                              : 717 MiB (7%)
  44. Language                                 : English
  45. Service kind                             : Complete Main
  46. Default                                  : Yes
  47. Forced                                   : No
  48. Audio #2
  49. ID                                       : 3
  50. Format                                   : AC-3
  51. Format/Info                              : Audio Coding 3
  52. Commercial name                          : Dolby Digital
  53. Codec ID                                 : A_AC3
  54. Duration                                 : 2 h 36 min
  55. Bit rate mode                            : Constant
  56. Bit rate                                 : 192 kb/s
  57. Channel(s)                               : 2 channels
  58. Channel layout                           : L R
  59. Sampling rate                            : 48.0 kHz
  60. Frame rate                               : 31.250 FPS (1536 SPF)
  61. Compression mode                         : Lossy
  62. Delay relative to video                  : 900 ms
  63. Stream size                              : 215 MiB (2%)
  64. Language                                 : Chinese
  65. Service kind                             : Complete Main
  66. Default                                  : No
  67. Forced                                   : No
  68. Audio #3
  69. ID                                       : 4
  70. Format                                   : AC-3
  71. Format/Info                              : Audio Coding 3
  72. Commercial name                          : Dolby Digital
  73. Codec ID                                 : A_AC3
  74. Duration                                 : 2 h 36 min
  75. Bit rate mode                            : Constant
  76. Bit rate                                 : 192 kb/s
  77. Channel(s)                               : 2 channels
  78. Channel layout                           : L R
  79. Sampling rate                            : 48.0 kHz
  80. Frame rate                               : 31.250 FPS (1536 SPF)
  81. Compression mode                         : Lossy
  82. Delay relative to video                  : 900 ms
  83. Stream size                              : 215 MiB (2%)
  84. Language                                 : Chinese
  85. Service kind                             : Complete Main
  86. Default                                  : No
  87. Forced                                   : No
  88. Text #1
  89. ID                                       : 5
  90. Format                                   : PGS
  91. Muxing mode                              : zlib
  92. Codec ID                                 : S_HDMV/PGS
  93. Codec ID/Info                            : Picture based subtitle format used on BDs/HD-DVDs
  94. Duration                                 : 2 h 30 min
  95. Bit rate                                 : 12.6 kb/s
  96. Count of elements                        : 4818
  97. Stream size                              : 13.6 MiB (0%)
  98. Language                                 : English
  99. Default                                  : Yes
  100. Forced                                   : No
  101. Text #2
  102. ID                                       : 6
  103. Format                                   : PGS
  104. Muxing mode                              : zlib
  105. Codec ID                                 : S_HDMV/PGS
  106. Codec ID/Info                            : Picture based subtitle format used on BDs/HD-DVDs
  107. Duration                                 : 2 h 32 min
  108. Bit rate                                 : 12.6 kb/s
  109. Count of elements                        : 3888
  110. Stream size                              : 13.7 MiB (0%)
  111. Language                                 : Chinese
  112. Default                                  : No
  113. Forced                                   : No
  114. Text #3
  115. ID                                       : 7
  116. Format                                   : PGS
  117. Muxing mode                              : zlib
  118. Codec ID                                 : S_HDMV/PGS
  119. Codec ID/Info                            : Picture based subtitle format used on BDs/HD-DVDs
  120. Duration                                 : 2 h 32 min
  121. Bit rate                                 : 12.9 kb/s
  122. Count of elements                        : 3888
  123. Stream size                              : 14.1 MiB (0%)
  124. Language                                 : Chinese
  125. Default                                  : No
  126. Forced                                   : No
  127. Text #4
  128. ID                                       : 8
  129. Format                                   : PGS
  130. Muxing mode                              : zlib
  131. Codec ID                                 : S_HDMV/PGS
  132. Codec ID/Info                            : Picture based subtitle format used on BDs/HD-DVDs
  133. Duration                                 : 2 h 32 min
  134. Bit rate                                 : 22.7 kb/s
  135. Count of elements                        : 3888
  136. Stream size                              : 24.7 MiB (0%)
  137. Language                                 : Chinese
  138. Default                                  : No
  139. Forced                                   : No
  140. Text #5
  141. ID                                       : 9
  142. Format                                   : PGS
  143. Muxing mode                              : zlib
  144. Codec ID                                 : S_HDMV/PGS
  145. Codec ID/Info                            : Picture based subtitle format used on BDs/HD-DVDs
  146. Duration                                 : 2 h 32 min
  147. Bit rate                                 : 23.0 kb/s
  148. Count of elements                        : 3888
  149. Stream size                              : 25.1 MiB (0%)
  150. Language                                 : Chinese
  151. Default                                  : No
  152. Forced                                   : No
  153. Menu
  154. 00:00:00.000                             : en:Chapter 01
  155. 00:06:23.925                             : en:Chapter 02
  156. 00:20:07.414                             : en:Chapter 03
  157. 00:24:25.881                             : en:Chapter 04
  158. 00:35:02.642                             : en:Chapter 05
  159. 00:39:10.139                             : en:Chapter 06
  160. 00:57:43.960                             : en:Chapter 07
  161. 01:08:42.368                             : en:Chapter 08
  162. 01:19:32.017                             : en:Chapter 09
  163. 01:40:30.524                             : en:Chapter 10
  164. 01:52:34.330                             : en:Chapter 11
  165. 02:12:01.622                             : en:Chapter 12
  166. 02:19:50.048                             : en:Chapter 13
  167. 02:26:16.726                             : en:Chapter 14
  168. 02:30:17.675                             : en:Chapter 15
  169. 02:33:22.985                             : en:Chapter 16





此处一般会放置磁力链或种子下载链接,不过此链接需要注册会员才能看到,点击“立即注册”
磁力链下载【下载链接仅对注册会员开放,登陆后可见】
BT9527电影天堂 1、BT9527电影天堂提供的BT文件均来源于互联网抓取,只供网友学习交流、技术提升使用。
2、我们遵守BitTorrent点对点协议原则,任何版权问题请联系原资源发布商,我们不处理任何版权纠纷,谢谢!如有争议请联系邮箱:BT9527#hotmail.com(#换成@)
3、如果您发现某页面或地址有错误,请联系站长邮箱BT9527#hotmail.com(#换成@),我们会尽快处理。您的热心是对BT9527电影天堂最大的支持。
4、本站建议去正规影院观看电影以支持电影行业发展。
最新回复 (0)

你可以在 登录 or 注册 后,对此帖发表评论!

返回
发新帖