春天[中文字幕].Late.Spring.2014.1080p.BluRay.DD5.1.x265-10bit-ENTHD 5.30GB

版主小s 3月前 717

✔资源类型:暂未分类   ✔电影年份:2014   ✔电影地区:韩国   ✔电影分类:剧情

◎译  名 春天 / 裸雕师欲火重生路(台) / 春 / 晚春 / Late Spring
◎片  名 ?
◎年  代 2014
◎产  地 韩国
◎类  别 剧情
◎语  言 韩语
◎上映日期 2014-11-20(韩国)
◎IMDb链接 https://www.imdb.com/title/tt3243630/
◎豆瓣评分 6.9/10 (2098人评价)
◎豆瓣链接 https://movie.douban.com/subject/25890081/
◎片  长 102分钟
◎导  演 曹近铉 Geun-hyeon Jo (id:1327939)
◎编  剧 曹近铉 Geun-hyeon Jo (id:1327939)
◎演  员 朴勇宇 Yong-woo Park (id:1033569)
       金瑞亨 Seo-hyung Kim (id:1042142)
       李裕英 You-young Lee (id:1342770)
       尹艺熙 Yoon Ye Hee (id:1340221)
       韩惠珍 Hye-jin Han (id:1041975)
       南一祐 Il-woo Nam (id:1016689)
       金秀安 Soo-an Kim (id:1343668)

◎简  介
  电影《春天》讲述的是曾被称为是天才的作家因为得了不治之症,失去了生活下去的信心,而妻子则为了重新唤醒作家的写作灵感,带回一个满是故事的女人。                                    
                                该片还在4月11日开幕第23届亚利桑那州国际电影节上获得最佳外语片奖。                                    
                                而在第14届米兰国际电影节上,该片入围了最佳导演、最佳剧本、最佳摄影、最佳音乐、最佳美术、最佳女主角、最佳男配角共8个单元的提名。

◎获奖情况 (共3项)
  第52届韩国电影大钟奖 (2015)
  最佳新人导演(提名)
   └──曹近铉 (id:1327939)
  最佳新人女演员
   └──李裕英 (id:1342770)
  最佳摄影(提名)

  1. ##### MediaInfo ######
  2. General
  3. Unique ID                                : 312875374134280735605942166243687450489 (0xEB619AEDC6600CBBC85FCF92BF0EC779)
  4. Complete name                            : Late.Spring.2014.1080p.BluRay.DD5.1.x265-10bit-ENTHD.mkv
  5. Format                                   : Matroska
  6. Format version                           : Version 4
  7. File size                                : 5.30 GiB
  8. Duration                                 : 1 h 42 min
  9. Overall bit rate                         : 7 369 kb/s
  10. Movie name                               : Late Spring 2014 1080p BluRay DD5.1 x265-10bit-HDS
  11. Encoded date                             : UTC 2022-06-14 13:23:12
  12. Writing application                      : mkvmerge v38.0.0 ('The Silent Type') 64-bit
  13. Writing library                          : libebml v1.3.9 + libmatroska v1.5.2
  14. Video
  15. ID                                       : 1
  16. Format                                   : HEVC
  17. Format/Info                              : High Efficiency Video Coding
  18. Format profile                           : Main 10@L5.1@High
  19. Codec ID                                 : V_MPEGH/ISO/HEVC
  20. Duration                                 : 1 h 42 min
  21. Bit rate                                 : 6 717 kb/s
  22. Width                                    : 1 920 pixels
  23. Height                                   : 816 pixels
  24. Display aspect ratio                     : 2.35:1
  25. Frame rate mode                          : Constant
  26. Frame rate                               : 23.976 (24000/1001/53354) FPS
  27. Color space                              : YUV
  28. Chroma subsampling                       : 4:2:0
  29. Bit depth                                : 10 bits
  30. Bits/(Pixel*Frame)                       : 0.179
  31. Stream size                              : 4.83 GiB (91%)
  32. Title                                    : billpotter@HDSky
  33. Writing library                          : x265 - H.265/HEVC codec
  34. Default                                  : Yes
  35. Forced                                   : No
  36. Audio
  37. ID                                       : 2
  38. Format                                   : AC-3
  39. Format/Info                              : Audio Coding 3
  40. Commercial name                          : Dolby Digital
  41. Codec ID                                 : A_AC3
  42. Duration                                 : 1 h 42 min
  43. Bit rate mode                            : Constant
  44. Bit rate                                 : 640 kb/s
  45. Channel(s)                               : 6 channels
  46. Channel layout                           : L R C LFE Ls Rs
  47. Sampling rate                            : 48.0 kHz
  48. Frame rate                               : 31.250 FPS (1536 SPF)
  49. Compression mode                         : Lossy
  50. Stream size                              : 471 MiB (9%)
  51. Title                                    : Korean
  52. Language                                 : Korean
  53. Service kind                             : Complete Main
  54. Default                                  : Yes
  55. Forced                                   : No
  56. Text #1
  57. ID                                       : 3
  58. Format                                   : PGS
  59. Muxing mode                              : zlib
  60. Codec ID                                 : S_HDMV/PGS
  61. Codec ID/Info                            : Picture based subtitle format used on BDs/HD-DVDs
  62. Duration                                 : 1 h 39 min
  63. Bit rate                                 : 9 385 b/s
  64. Count of elements                        : 1096
  65. Stream size                              : 6.69 MiB (0%)
  66. Title                                    : CHS
  67. Language                                 : Chinese
  68. Default                                  : Yes
  69. Forced                                   : No
  70. Text #2
  71. ID                                       : 4
  72. Format                                   : PGS
  73. Muxing mode                              : zlib
  74. Codec ID                                 : S_HDMV/PGS
  75. Codec ID/Info                            : Picture based subtitle format used on BDs/HD-DVDs
  76. Duration                                 : 1 h 39 min
  77. Bit rate                                 : 9 623 b/s
  78. Count of elements                        : 1096
  79. Stream size                              : 6.86 MiB (0%)
  80. Title                                    : CHS
  81. Language                                 : Chinese
  82. Default                                  : No
  83. Forced                                   : No
  84. Menu
  85. 00:00:00.000                             : en:Chapter 01
  86. 00:07:22.942                             : en:Chapter 02
  87. 00:15:20.211                             : en:Chapter 03
  88. 00:25:17.099                             : en:Chapter 04
  89. 00:34:32.946                             : en:Chapter 05
  90. 00:40:21.544                             : en:Chapter 06
  91. 00:49:51.030                             : en:Chapter 07
  92. 00:58:36.388                             : en:Chapter 08
  93. 01:09:14.984                             : en:Chapter 09
  94. 01:17:28.769                             : en:Chapter 10
  95. 01:26:05.702                             : en:Chapter 11
  96. 01:34:46.097                             : en:Chapter 12





此处一般会放置磁力链或种子下载链接,不过此链接需要注册会员才能看到,点击“立即注册”
磁力链下载【下载链接仅对注册会员开放,登陆后可见】
BT9527电影天堂 1、BT9527电影天堂提供的BT文件均来源于互联网抓取,只供网友学习交流、技术提升使用。
2、我们遵守BitTorrent点对点协议原则,任何版权问题请联系原资源发布商,我们不处理任何版权纠纷,谢谢!如有争议请联系邮箱:BT9527#hotmail.com(#换成@)
3、如果您发现某页面或地址有错误,请联系站长邮箱BT9527#hotmail.com(#换成@),我们会尽快处理。您的热心是对BT9527电影天堂最大的支持。
4、本站建议去正规影院观看电影以支持电影行业发展。
最新回复 (0)

你可以在 登录 or 注册 后,对此帖发表评论!

返回
发新帖