银河护卫队2[国英多音轨/中英字幕].Guardians.of.the.Galaxy.Vol.2.2017.BluRay.1080p.x265.10bit.2Audio-MiniHD 6.45GB

版主小s 3月前 173

✔资源类型:暂未分类   ✔电影年份:2017   ✔电影地区:欧美   ✔电影分类:动作

◎译  名 银河护卫队2 / 星际异攻队2(台) / 银河守护队2(港) / 银护2 / Guardians of the Galaxy 2
◎片  名 Guardians of the Galaxy Vol. 2
◎年  代 2017
◎产  地 美国
◎类  别 动作 / 科幻 / 冒险
◎语  言 英语
◎上映日期 2017-05-05(中国大陆/美国) / 2017-04-19(洛杉矶首映)
◎IMDb链接 https://www.imdb.com/title/tt3896198/
◎豆瓣评分 8.0/10 (428018人评价)
◎豆瓣链接 https://movie.douban.com/subject/25937854/
◎片  长 136分钟
◎导  演 詹姆斯·古恩 James Gunn (id:1092322)
◎编  剧 詹姆斯·古恩 James Gunn (id:1092322)
       丹·阿布内特 Dan Abnett (id:1332273)
       安迪·兰宁 Andy Lanning (id:1332276)
◎演  员 克里斯·帕拉特 Chris Pratt (id:1017967)
       佐伊·索尔达娜 Zoe Saldana (id:1047985)
       戴夫·巴蒂斯塔 Dave Bautista (id:1014003)
       范·迪塞尔 Vin Diesel (id:1041020)
       布莱德利·库珀 Bradley Cooper (id:1013757)
       凯伦·吉兰 Karen Gillan (id:1036344)
       迈克尔·鲁克 Michael Rooker (id:1002751)
       庞·克莱门捷夫 Pom Klementieff (id:1313255)
       伊丽莎白·德比茨基 Elizabeth Debicki (id:1322172)
       肖恩·古恩 Sean Gunn (id:1022552)
       库尔特·拉塞尔 Kurt Russell (id:1031814)
       克里斯·沙利文 Chris Sullivan (id:1354747)
       大卫·哈塞尔霍夫 David Hasselhoff (id:1010601)
       西尔维斯特·史泰龙 Sylvester Stallone (id:1047996)
       杨紫琼 Michelle Yeoh (id:1022664)
       斯坦·李 Stan Lee (id:1013888)
       内森·菲利安 Nathan Fillion (id:1000003)
       劳拉·哈德克 Laura Haddock (id:1324587)
       莫莉·奎恩 Molly C. Quinn (id:1027223)
       文·瑞姆斯 Ving Rhames (id:1048129)
       迈克尔·罗森巴姆 Michael Rosenbaum (id:1009299)
       瓦耶特·奥莱夫 Wyatt Oleff (id:1343727)
       卢克·库克 Luke Cook (id:1206819)
       特伦斯·罗斯摩尔 Terence Rosemore (id:1142633)
       亚历克斯·克莱因 Alex Klein (id:1328649)
       乔·弗里亚 Joe Fria (id:1394859)
       莫莉·C·奎恩 Molly C. Quinn (id:1419244)
       斯坦·李 Stan Lee (id:1013888)
       凯文·费奇 Kevin Feige (id:1340830)
       泰勒·贝茨 Tyler Bates (id:1278075)
       Jerad Marantz Jerad Marantz (id:1454186)
       朱迪安娜·马科夫斯基 Judianna Makovsky (id:1290783)
       劳拉·丹德里奇 Laura Dandridge (id:1341790)
       李·奥尔洛夫 Lee Orloff (id:1293624)
       杰西卡卡林顿 Jessica Carrington (id:1404965)
       迈克尔·狄龙 Michael Dillon (id:1230257)
       丹尼尔·萨迪克 Daniel Sudick (id:1298615)
       伊万·雅格布斯 Evan Jacobs (id:1042616)
       瑞恩·艾伦 Ryan Allen (id:1247853)
       威尔·华莱士 Will Wallace (id:1405398)
       瑞秋·劳伦森 Rachel Laurenson (id:1414103)
       托马斯·尼特曼 Thomas Nittmann (id:1414106)
       罗恩·安德达尔 Ron Underdahl (id:1414354)
       拉斐尔·皮门特尔 Raphael A. Pimentel (id:1419122)
       奥·布里克 Ed Ulbrich (id:1410103)
       扎克·贾德森 Zack Judson (id:1411059)
       艾米丽·皮德 Emily Pead (id:1411061)
       保罗·哈林 Paul Harling (id:1411056)

◎简  介
  火箭浣熊(布莱德利·库珀 Bradley Cooper 饰)偷走了大祭司阿耶莎(伊丽莎白·德比齐 Elizabeth Debicki 饰)的能量电池,包括星爵(克里斯·帕拉特 Chris Pratt 饰)、卡魔拉(佐伊·索尔达娜 Zoe Saldana 饰)、德拉克斯(戴夫·巴蒂斯塔 Dave Bautista 饰)在内的一行人遭到了后者派出的舰队的袭击。一个神秘人物乘坐着飞船救下了银河护卫队的众人,而驾驶着飞船的不是别人,竟然正是星爵的亲生父亲伊戈(库尔特·拉塞尔 Kurt Russell 饰)。                                    
                                在伊戈的带领下,星爵、卡魔拉和德拉克斯来到了由伊戈一手制造的星球上,而剩下的成员们则着手修复损坏的飞船。那边厢,阿耶莎委托勇度(迈克尔·鲁克 Michael Rooker 饰)抓住星爵替自己报仇,而卡魔拉亦渐渐发现了伊戈和善面目下隐藏的巨大阴谋。

◎获奖情况 (共9项)
  第90届奥斯卡金像奖 (2018)
  最佳视觉效果(提名)

  第45届动画安妮奖 (2018)
  最佳真人电影动画角色(提名)

  第16届美国视觉效果协会奖 (2018)
  最佳特效电影视觉效果(提名)
  最佳电影虚拟摄影

  第21届好莱坞电影奖 (2017)
  年度音效

  第4届豆瓣电影年度榜单 (2017)
  评分最高的科幻/动作片(提名)
  年度电影原声(提名)
  5月最受关注电影(提名)

  第3届豆瓣电影年度榜单 (2016)
  最值得期待的外语电影(提名)

  1. ##### MediaInfo ######
  2. General
  3. Unique ID                                : 172200825538163032339097949957327700465 (0x818CAC31D24ABFA488AE575F6CB441F1)
  4. Complete name                            : Guardians.of.the.Galaxy.Vol.2.2017.BluRay.1080p.x265.10bit.2Audio-MiniHD.mkv
  5. Format                                   : Matroska
  6. Format version                           : Version 4
  7. File size                                : 6.45 GiB
  8. Duration                                 : 2 h 15 min
  9. Overall bit rate                         : 6 801 kb/s
  10. Encoded date                             : UTC 2017-08-21 10:43:15
  11. Writing application                      : mkvmerge v11.0.0 ('Alive') 64bit
  12. Writing library                          : libebml v1.3.4 + libmatroska v1.4.5
  13. Video
  14. ID                                       : 1
  15. Format                                   : HEVC
  16. Format/Info                              : High Efficiency Video Coding
  17. Codec ID                                 : V_MPEGH/ISO/HEVC
  18. Duration                                 : 2 h 15 min
  19. Bit rate                                 : 4 976 kb/s
  20. Width                                    : 1 920 pixels
  21. Height                                   : 804 pixels
  22. Display aspect ratio                     : 2.40:1
  23. Frame rate mode                          : Constant
  24. Frame rate                               : 23.976 (24000/1001/53354) FPS
  25. Bits/(Pixel*Frame)                       : 0.134
  26. Stream size                              : 4.72 GiB (73%)
  27. Default                                  : Yes
  28. Forced                                   : No
  29. Audio #1
  30. ID                                       : 2
  31. Format                                   : AC-3
  32. Format/Info                              : Audio Coding 3
  33. Commercial name                          : Dolby Digital
  34. Codec ID                                 : A_AC3
  35. Duration                                 : 2 h 15 min
  36. Bit rate mode                            : Constant
  37. Bit rate                                 : 640 kb/s
  38. Channel(s)                               : 6 channels
  39. Channel layout                           : L R C LFE Ls Rs
  40. Sampling rate                            : 48.0 kHz
  41. Frame rate                               : 31.250 FPS (1536 SPF)
  42. Compression mode                         : Lossy
  43. Stream size                              : 622 MiB (9%)
  44. Language                                 : English
  45. Service kind                             : Complete Main
  46. Default                                  : Yes
  47. Forced                                   : No
  48. Audio #2
  49. ID                                       : 3
  50. Format                                   : AC-3
  51. Format/Info                              : Audio Coding 3
  52. Commercial name                          : Dolby Digital
  53. Codec ID                                 : A_AC3
  54. Duration                                 : 2 h 15 min
  55. Bit rate mode                            : Constant
  56. Bit rate                                 : 640 kb/s
  57. Channel(s)                               : 6 channels
  58. Channel layout                           : L R C LFE Ls Rs
  59. Sampling rate                            : 48.0 kHz
  60. Frame rate                               : 31.250 FPS (1536 SPF)
  61. Compression mode                         : Lossy
  62. Stream size                              : 622 MiB (9%)
  63. Language                                 : Chinese
  64. Service kind                             : Complete Main
  65. Default                                  : No
  66. Forced                                   : No
  67. Text #1
  68. ID                                       : 4
  69. Format                                   : PGS
  70. Muxing mode                              : zlib
  71. Codec ID                                 : S_HDMV/PGS
  72. Codec ID/Info                            : Picture based subtitle format used on BDs/HD-DVDs
  73. Duration                                 : 2 h 14 min
  74. Bit rate                                 : 11.4 kb/s
  75. Count of elements                        : 3946
  76. Stream size                              : 11.0 MiB (0%)
  77. Language                                 : English
  78. Default                                  : Yes
  79. Forced                                   : No
  80. Text #2
  81. ID                                       : 5
  82. Format                                   : PGS
  83. Muxing mode                              : zlib
  84. Codec ID                                 : S_HDMV/PGS
  85. Codec ID/Info                            : Picture based subtitle format used on BDs/HD-DVDs
  86. Duration                                 : 2 h 15 min
  87. Bit rate                                 : 95.9 kb/s
  88. Count of elements                        : 5905
  89. Stream size                              : 92.8 MiB (1%)
  90. Language                                 : Chinese
  91. Default                                  : No
  92. Forced                                   : No
  93. Text #3
  94. ID                                       : 6
  95. Format                                   : PGS
  96. Muxing mode                              : zlib
  97. Codec ID                                 : S_HDMV/PGS
  98. Codec ID/Info                            : Picture based subtitle format used on BDs/HD-DVDs
  99. Duration                                 : 2 h 15 min
  100. Bit rate                                 : 94.0 kb/s
  101. Count of elements                        : 6027
  102. Stream size                              : 90.9 MiB (1%)
  103. Language                                 : Chinese
  104. Default                                  : No
  105. Forced                                   : No
  106. Text #4
  107. ID                                       : 7
  108. Format                                   : PGS
  109. Muxing mode                              : zlib
  110. Codec ID                                 : S_HDMV/PGS
  111. Codec ID/Info                            : Picture based subtitle format used on BDs/HD-DVDs
  112. Duration                                 : 2 h 15 min
  113. Bit rate                                 : 94.1 kb/s
  114. Count of elements                        : 6027
  115. Stream size                              : 91.0 MiB (1%)
  116. Language                                 : Chinese
  117. Default                                  : No
  118. Forced                                   : No
  119. Text #5
  120. ID                                       : 8
  121. Format                                   : PGS
  122. Muxing mode                              : zlib
  123. Codec ID                                 : S_HDMV/PGS
  124. Codec ID/Info                            : Picture based subtitle format used on BDs/HD-DVDs
  125. Duration                                 : 2 h 15 min
  126. Bit rate                                 : 107 kb/s
  127. Count of elements                        : 6028
  128. Stream size                              : 103 MiB (2%)
  129. Language                                 : Chinese
  130. Default                                  : No
  131. Forced                                   : No
  132. Text #6
  133. ID                                       : 9
  134. Format                                   : PGS
  135. Muxing mode                              : zlib
  136. Codec ID                                 : S_HDMV/PGS
  137. Codec ID/Info                            : Picture based subtitle format used on BDs/HD-DVDs
  138. Duration                                 : 2 h 15 min
  139. Bit rate                                 : 107 kb/s
  140. Count of elements                        : 6028
  141. Stream size                              : 103 MiB (2%)
  142. Language                                 : Chinese
  143. Default                                  : No
  144. Forced                                   : No
  145. Text #7
  146. ID                                       : 10
  147. Format                                   : PGS
  148. Muxing mode                              : zlib
  149. Codec ID                                 : S_HDMV/PGS
  150. Codec ID/Info                            : Picture based subtitle format used on BDs/HD-DVDs
  151. Duration                                 : 2 h 14 min
  152. Bit rate                                 : 13.4 kb/s
  153. Count of elements                        : 3208
  154. Stream size                              : 12.9 MiB (0%)
  155. Language                                 : Chinese
  156. Default                                  : No
  157. Forced                                   : No
  158. Text #8
  159. ID                                       : 11
  160. Format                                   : PGS
  161. Muxing mode                              : zlib
  162. Codec ID                                 : S_HDMV/PGS
  163. Codec ID/Info                            : Picture based subtitle format used on BDs/HD-DVDs
  164. Duration                                 : 2 h 14 min
  165. Bit rate                                 : 11.5 kb/s
  166. Count of elements                        : 3290
  167. Stream size                              : 11.1 MiB (0%)
  168. Language                                 : Chinese
  169. Default                                  : No
  170. Forced                                   : No
  171. Text #9
  172. ID                                       : 12
  173. Format                                   : PGS
  174. Muxing mode                              : zlib
  175. Codec ID                                 : S_HDMV/PGS
  176. Codec ID/Info                            : Picture based subtitle format used on BDs/HD-DVDs
  177. Duration                                 : 2 h 14 min
  178. Bit rate                                 : 9 730 b/s
  179. Count of elements                        : 3176
  180. Stream size                              : 9.38 MiB (0%)
  181. Language                                 : Chinese
  182. Default                                  : No
  183. Forced                                   : No
  184. Menu
  185. 00:00:00.000                             : en:Chapter 01
  186. 00:09:56.178                             : en:Chapter 02
  187. 00:15:10.117                             : en:Chapter 03
  188. 00:22:14.082                             : en:Chapter 04
  189. 00:32:33.701                             : en:Chapter 05
  190. 00:36:52.126                             : en:Chapter 06
  191. 00:42:29.171                             : en:Chapter 07
  192. 00:48:03.463                             : en:Chapter 08
  193. 00:53:18.904                             : en:Chapter 09
  194. 00:58:45.939                             : en:Chapter 10
  195. 01:05:52.239                             : en:Chapter 11
  196. 01:11:12.434                             : en:Chapter 12
  197. 01:18:43.593                             : en:Chapter 13
  198. 01:23:55.321                             : en:Chapter 14
  199. 01:30:24.752                             : en:Chapter 15
  200. 01:39:36.178                             : en:Chapter 16
  201. 01:47:06.211                             : en:Chapter 17
  202. 01:54:21.604                             : en:Chapter 18
  203. 01:58:53.709                             : en:Chapter 19
  204. 02:07:13.459                             : en:Chapter 20





此处一般会放置磁力链或种子下载链接,不过此链接需要注册会员才能看到,点击“立即注册”
磁力链下载【下载链接仅对注册会员开放,登陆后可见】
BT9527电影天堂 1、BT9527电影天堂提供的BT文件均来源于互联网抓取,只供网友学习交流、技术提升使用。
2、我们遵守BitTorrent点对点协议原则,任何版权问题请联系原资源发布商,我们不处理任何版权纠纷,谢谢!如有争议请联系邮箱:BT9527#hotmail.com(#换成@)
3、如果您发现某页面或地址有错误,请联系站长邮箱BT9527#hotmail.com(#换成@),我们会尽快处理。您的热心是对BT9527电影天堂最大的支持。
4、本站建议去正规影院观看电影以支持电影行业发展。
最新回复 (0)

你可以在 登录 or 注册 后,对此帖发表评论!

返回