铁钩船长[国英多音轨/中英字幕].Hook.1991.BluRay.1080p.x265.10bit.2Audio-MiniHD 7.36GB

版主小s 15天前 74

✔资源类型:暂未分类   ✔电影年份:更 早   ✔电影地区:欧美   ✔电影分类:其他

◎译  名 铁钩船长 / 虎克船长(台) / 霍克船长
◎片  名 Hook
◎年  代 1991
◎产  地 美国
◎类  别 家庭 / 奇幻 / 冒险
◎语  言 英语
◎上映日期 1991-12-11
◎IMDb链接 https://www.imdb.com/title/tt0102057/
◎豆瓣评分 6.8/10 (4984人评价)
◎豆瓣链接 https://movie.douban.com/subject/1298692/
◎片  长 142分钟
◎导  演 史蒂文·斯皮尔伯格 Steven Spielberg (id:1054440)
◎编  剧 J·M·巴利 J.M. Barrie (id:1048331)
       詹姆士·V·哈特 James V. Hart (id:1286156)
       尼克·卡斯特尔 Nick Castle (id:1068970)
◎演  员 达斯汀·霍夫曼 Dustin Hoffman (id:1054427)
       罗宾·威廉姆斯 Robin Williams (id:1009241)
       朱莉娅·罗伯茨 Julia Roberts (id:1054532)
       鲍勃·霍斯金斯 Bob Hoskins (id:1041156)
       玛吉·史密斯 Maggie Smith (id:1013798)
       卡罗琳·古多尔 Caroline Goodall (id:1041165)
       查理·科斯莫 Charlie Korsmo (id:1054976)
       安玻·斯科特 Amber Scott (id:1027311)
       劳蕾尔·克罗宁 Laurel Cronin (id:1069469)
       菲尔·柯林斯 Phil Collins (id:1004745)
       阿瑟·马利特 Arthur Malet (id:1122773)
       以赛亚·鲁宾逊 Isaiah Robinson (id:1137508)
       贾森·费希尔 Jasen Fisher (id:1283785)
       丹特·巴斯克 Dante Basco (id:1055608)
       劳山·哈蒙德 Raushan Hammond (id:1100018)
       格温妮斯·帕特洛 Gwyneth Paltrow (id:1018985)
       凯丽·费雪 Carrie Fisher (id:1027813)
       René González Jr. René González Jr. (id:1285116)
       Adam McNatt Adam McNatt (id:1291708)
       迈克尔·鲍道 Michael Runyard (id:1296330)
       Ahmad Stoner Ahmad Stoner (id:1298508)
       Brian Willis Brian Willis (id:1301007)
       Brett Willis Brett Willis (id:1301012)
       Alex Zuckerman Alex Zuckerman (id:1301783)
       Bogdan Georghe Bogdan Georghe (id:1284724)
       Craig Baumgarten Craig Baumgarten (id:1278107)
       布鲁斯·科恩 Bruce Cohen (id:1280973)
       詹姆士·V·哈特 James V. Hart (id:1286156)
       约翰·威廉姆斯 John Williams (id:1054692)
       迈克尔·卡恩 Michael Kahn (id:1037019)
       珍妮特·希尔森 Janet Hirshenson (id:1286699)
       托马斯·E·桑德斯 Thomas E. Sanders (id:1296629)
       加雷特·刘易斯 Garrett Lewis (id:1289951)
       诺尔曼·加尔伍德 Norman Garwood (id:1284595)
       安东尼·鲍威尔 Anthony Powell (id:1131122)
       Francine Shermaine Francine Shermaine (id:1297429)
       基斯·范德兰 Keith VanderLaan (id:1299886)
       Susan Schuler-Page Susan Schuler-Page (id:1296991)
       金·桑坦托尼奥 Kim Santantonio (id:1296669)
       维·尼尔 Ve Neill (id:1293011)
       Stephen Robinette Stephen Robinette (id:1295798)
       Janna Phillips Janna Phillips (id:1294457)
       Moni Mansano Moni Mansano (id:1290898)
       Dorothy D. Fox Dorothy D. Fox (id:1284064)
       格雷格·卡农 Greg Cannom (id:1280002)
       Edwin Butterworth Edwin Butterworth (id:1279759)
       朱迪斯·A·科里 Judith A. Cory (id:1281330)
       Judy Crown Judy Crown (id:1281556)
       Caryl Codon-Tharp Caryl Codon-Tharp (id:1280957)
       Del Acevedo Del Acevedo (id:1276778)
       Gus Le Pre Gus Le Pre (id:1289827)
       史蒂夫·普劳蒂 Steve Prouty (id:1294954)
       Ora Green Ora Green (id:1285369)
       诺玛·李 Norma Lee (id:1289694)
       Werner Keppler Werner Keppler (id:1288426)
       布鲁斯·科恩 Bruce Cohen (id:1280973)
       罗科·焦弗雷 Rocco Gioffre (id:1284912)
       布莱恩·格南德 Brian Gernand (id:1284742)
       潘国瑜 Ellen Poon (id:1294718)
       克里斯托弗·埃文斯 Christopher Evans (id:1283336)
       Mike Ellis Mike Ellis (id:1283149)
       Michael Conte Michael Conte (id:1281172)
       托马斯·罗塞特 Thomas Rosseter (id:1296146)
       洛尔恩·彼得森 Lorne Peterson (id:1294386)
       杰克·莫多万 Jack Mongovan (id:1292344)
       杰弗·海隆 Geoff Heron (id:1286513)
       爱德华·赫希 Edward Hirsh (id:1286690)
       Patrick T. Myers Patrick T. Myers (id:1292827)
       哈雷·杰斯普 Harley Jessup (id:1287721)
       埃德·琼斯 Ed Jones (id:1287861)
       乔治·墨菲 George Murphy (id:1292757)
       Jim Morris Jim Morris (id:1292540)
       Eric Chauvin Eric Chauvin (id:1280543)
       肯尼斯·史密斯 Kenneth Smith (id:1297900)
       马克·萨利文 Mark Sullivan (id:1298630)
       戈登·贝克尔 Gordon Baker (id:1277729)
       Wes Takahashi Wes Takahashi (id:1298841)
       上杉佑子 Yusei Uesugi (id:1299710)
       Kimberly K. Nelson Kimberly K. Nelson (id:1276654)
       Debbie Denise Debbie Denise (id:1276381)
       布鲁斯·沃尔特斯 Bruce Walters (id:1300370)
       罗伯特·韦弗 Robert Weaver (id:1300543)
       Judith Weaver Judith Weaver (id:1300544)
       约翰·埃利斯 John Ellis (id:1305506)
       乔恩·亚历山大 Jon Alexander (id:1276987)
       小约翰·安德鲁·伯顿 John Andrew Berton Jr. (id:1278529)
       汤姆·柏提诺 Tom Bertino (id:1278530)
       Jean Bolte Jean Bolte (id:1278923)
       Kim Bromley Kim Bromley (id:1279373)
       埃里克·布雷维格 Eric Brevig (id:1279277)

◎简  介
  时光飞逝,当年的小飞侠彼得·潘(Robin Williams 罗宾·威廉姆斯 饰)已长大成人,成为一名出色能干的律师。他与儿时的女伴温蒂(玛吉·史密斯 Maggie Smith 饰)的孙女结婚,并育有两个可爱的孩子。一家人在现实世界中幸福温馨,其乐融融。此时的彼得已忘记了自己小飞侠的身份,以及曾在梦幻岛上那惊险和快乐的时光。                                    
                                在带着妻儿探望祖母的路上,邪恶的铁钩船长(Dustin Hoffman 达斯汀?霍夫曼 饰)竟然再次出现,并虏去了他们的孩子。焦急的彼得手足无措,为了拯救孩子,他必须尽快找回小飞侠的身份,回到梦幻岛与宿敌决一雌雄……

◎获奖情况 (共5项)
  第64届奥斯卡金像奖 (1992)
  最佳视觉效果(提名)
  最佳艺术指导(提名)
  最佳服装设计(提名)
   └──安东尼·鲍威尔 (id:1131122)
  最佳化妆(提名)
  最佳原创歌曲(提名)

  1. ##### MediaInfo ######
  2. General
  3. Unique ID                                : 225824665937253156942887069233626727830 (0xA9E43FA647A7E8EE9B2D6EEFC1F7C596)
  4. Complete name                            : Hook.1991.BluRay.1080p.x265.10bit.2Audio-MiniHD.mkv
  5. Format                                   : Matroska
  6. Format version                           : Version 4
  7. File size                                : 7.35 GiB
  8. Duration                                 : 2 h 21 min
  9. Overall bit rate                         : 7 428 kb/s
  10. Encoded date                             : UTC 2017-06-30 01:31:45
  11. Writing application                      : mkvmerge v11.0.0 ('Alive') 64bit
  12. Writing library                          : libebml v1.3.4 + libmatroska v1.4.5
  13. Video
  14. ID                                       : 1
  15. Format                                   : HEVC
  16. Format/Info                              : High Efficiency Video Coding
  17. Codec ID                                 : V_MPEGH/ISO/HEVC
  18. Duration                                 : 2 h 21 min
  19. Bit rate                                 : 6 556 kb/s
  20. Width                                    : 1 920 pixels
  21. Height                                   : 800 pixels
  22. Display aspect ratio                     : 2.40:1
  23. Frame rate mode                          : Constant
  24. Frame rate                               : 23.976 (24000/1001/53354) FPS
  25. Bits/(Pixel*Frame)                       : 0.178
  26. Stream size                              : 6.49 GiB (88%)
  27. Default                                  : Yes
  28. Forced                                   : No
  29. Audio #1
  30. ID                                       : 2
  31. Format                                   : AC-3
  32. Format/Info                              : Audio Coding 3
  33. Commercial name                          : Dolby Digital
  34. Codec ID                                 : A_AC3
  35. Duration                                 : 2 h 21 min
  36. Bit rate mode                            : Constant
  37. Bit rate                                 : 640 kb/s
  38. Channel(s)                               : 6 channels
  39. Channel layout                           : L R C LFE Ls Rs
  40. Sampling rate                            : 48.0 kHz
  41. Frame rate                               : 31.250 FPS (1536 SPF)
  42. Compression mode                         : Lossy
  43. Stream size                              : 649 MiB (9%)
  44. Language                                 : English
  45. Service kind                             : Complete Main
  46. Default                                  : Yes
  47. Forced                                   : No
  48. Audio #2
  49. ID                                       : 3
  50. Format                                   : AC-3
  51. Format/Info                              : Audio Coding 3
  52. Commercial name                          : Dolby Digital
  53. Codec ID                                 : A_AC3
  54. Duration                                 : 2 h 21 min
  55. Bit rate mode                            : Constant
  56. Bit rate                                 : 192 kb/s
  57. Channel(s)                               : 2 channels
  58. Channel layout                           : L R
  59. Sampling rate                            : 48.0 kHz
  60. Frame rate                               : 31.250 FPS (1536 SPF)
  61. Compression mode                         : Lossy
  62. Delay relative to video                  : 16 ms
  63. Stream size                              : 195 MiB (3%)
  64. Language                                 : Chinese
  65. Service kind                             : Complete Main
  66. Default                                  : No
  67. Forced                                   : No
  68. Text #1
  69. ID                                       : 4
  70. Format                                   : PGS
  71. Muxing mode                              : zlib
  72. Codec ID                                 : S_HDMV/PGS
  73. Codec ID/Info                            : Picture based subtitle format used on BDs/HD-DVDs
  74. Duration                                 : 2 h 14 min
  75. Bit rate                                 : 12.2 kb/s
  76. Count of elements                        : 3090
  77. Stream size                              : 11.7 MiB (0%)
  78. Language                                 : English
  79. Default                                  : Yes
  80. Forced                                   : No
  81. Text #2
  82. ID                                       : 5
  83. Format                                   : PGS
  84. Muxing mode                              : zlib
  85. Codec ID                                 : S_HDMV/PGS
  86. Codec ID/Info                            : Picture based subtitle format used on BDs/HD-DVDs
  87. Duration                                 : 2 h 14 min
  88. Bit rate                                 : 12.2 kb/s
  89. Count of elements                        : 3092
  90. Stream size                              : 11.7 MiB (0%)
  91. Language                                 : English
  92. Default                                  : No
  93. Forced                                   : No
  94. Text #3
  95. ID                                       : 6
  96. Format                                   : PGS
  97. Muxing mode                              : zlib
  98. Codec ID                                 : S_HDMV/PGS
  99. Codec ID/Info                            : Picture based subtitle format used on BDs/HD-DVDs
  100. Duration                                 : 2 h 14 min
  101. Bit rate                                 : 14.9 kb/s
  102. Count of elements                        : 2980
  103. Stream size                              : 14.3 MiB (0%)
  104. Language                                 : Chinese
  105. Default                                  : No
  106. Forced                                   : No
  107. Menu
  108. 00:00:00.000                             : en:Chapter 01
  109. 00:08:05.943                             : en:Chapter 02
  110. 00:16:44.378                             : en:Chapter 03
  111. 00:23:37.624                             : en:Chapter 04
  112. 00:30:14.395                             : en:Chapter 05
  113. 00:35:50.356                             : en:Chapter 06
  114. 00:48:17.603                             : en:Chapter 07
  115. 00:58:14.199                             : en:Chapter 08
  116. 01:06:16.973                             : en:Chapter 09
  117. 01:11:26.532                             : en:Chapter 10
  118. 01:22:03.543                             : en:Chapter 11
  119. 01:31:46.000                             : en:Chapter 12
  120. 01:40:26.020                             : en:Chapter 13
  121. 01:47:53.592                             : en:Chapter 14
  122. 01:56:29.857                             : en:Chapter 15
  123. 02:08:10.057                             : en:Chapter 16





此处一般会放置磁力链或种子下载链接,不过此链接需要注册会员才能看到,点击“立即注册”
磁力链下载【下载链接仅对注册会员开放,登陆后可见】
BT9527电影天堂 1、BT9527电影天堂提供的BT文件均来源于互联网抓取,只供网友学习交流、技术提升使用。
2、我们遵守BitTorrent点对点协议原则,任何版权问题请联系原资源发布商,我们不处理任何版权纠纷,谢谢!如有争议请联系邮箱:BT9527#hotmail.com(#换成@)
3、如果您发现某页面或地址有错误,请联系站长邮箱BT9527#hotmail.com(#换成@),我们会尽快处理。您的热心是对BT9527电影天堂最大的支持。
4、本站建议去正规影院观看电影以支持电影行业发展。
最新回复 (0)

你可以在 登录 or 注册 后,对此帖发表评论!

返回
发新帖