常在你左右[国粤多音轨/简繁英字幕].Always.Be.with.You.2017.BluRay.1080p.x265.10bit.2Audio-MiniHD 7.08GB

版主小s 19天前 81

✔资源类型:暂未分类   ✔电影年份:2017   ✔电影地区:香港   ✔电影分类:悬疑

◎译  名 常在你左右 / 阴阳路之常在你左右 / Accompany You / Always Be with You
◎年  代 2017
◎产  地 中国香港 / 中国大陆
◎类  别 悬疑 / 犯罪
◎语  言 粤语
◎上映日期 2017-10-27(中国大陆)
◎IMDb链接 https://www.imdb.com/title/tt7469972/
◎豆瓣评分 5.0/10 (11347人评价)
◎豆瓣链接 https://movie.douban.com/subject/26961002/
◎片  长 98分钟
◎导  演 邱礼涛 Herman Yau (id:1274313)
◎编  剧 邱礼涛 Herman Yau (id:1274313)
       文佩卿 Peiqing Wen (id:1336831)
◎演  员 古天乐 Louis Koo (id:1027577)
       张智霖 Julian Cheung (id:1050979)
       林家栋 Ka Tung Lam (id:1050329)
       蔡卓妍 Charlene Choi (id:1041425)
       佘诗曼 Charmaine Sheh (id:1019718)
       林雪 Suet Lam (id:1274279)
       苑琼丹 King-Tan Yuen (id:1274445)
       雨侨 YuKiu Ava (id:1315568)
       黄雅敏 Nga-Man Wong (id:1472453)
       何国男 Jordan Ho (id:1472516)
       胡燕婷 Yanting Hu (id:1447692)
       王志文 Chi Man Wong (id:1472532)
       陈智伟 Chi-Wai Chan (id:1472567)
       周祉君 Aaron Chow (id:1365642)
       罗兰 Lan Law (id:1054340)
       李静仪 Heidi Lee (id:1343968)
       林德信 Alex Lam (id:1336855)
       吴文舜 Man-Shun Ng (id:1472568)
       林小强 Alvin Lam (id:1445687)
       黄柏高 Paco Wong Pak Go (id:1343341)

◎简  介
  罹患不治之症的David(张智霖 饰),醉驾失控冲向隔邻行车线,休班警员Sam(古天乐 饰)和妻子阿思(佘诗曼 饰)于两车相撞前及时扭軚,避过一劫。David的车和跟在Sam车后的一辆车迎头相撞,司机Patrick无辜惨死。失恋寻死的小红从天台一跃而,恰巧堕到Patrick车顶。此时,新晋歌手Jamie与舅父驾车经过,好奇查看时,遭重型货车撞死。负责处理小红尸体的仵工志强(林家栋 饰),因想还清赌债而偷走了陪葬的龙凤镯,却一直不能将其变卖。Patrick未婚妻雨欣(蔡卓妍 饰),为完成丈夫的遗愿经营渡假屋,却接连发生怪事,David为了赎罪前来暗中帮忙。Jamie的黑胶唱片被扔掉后仍不断重回到Sam和阿思家中,涉及车祸的人无不遇怪事……
  1. ##### MediaInfo ######
  2. General
  3. Unique ID                                : 208444748539952490384849142948865276327 (0x9CD0FF905943B8D9B05BCBF0BAE479A7)
  4. Complete name                            : Always.Be.with.You.2017.BluRay.1080p.x265.10bit.2Audio-MiniHD.mkv
  5. Format                                   : Matroska
  6. Format version                           : Version 4
  7. File size                                : 7.08 GiB
  8. Duration                                 : 1 h 38 min
  9. Overall bit rate                         : 10.3 Mb/s
  10. Encoded date                             : UTC 2017-12-20 07:18:06
  11. Writing application                      : mkvmerge v16.0.0 ('Protest') 32-bit
  12. Writing library                          : libebml v1.3.5 + libmatroska v1.4.8
  13. Video
  14. ID                                       : 1
  15. Format                                   : HEVC
  16. Format/Info                              : High Efficiency Video Coding
  17. Format profile                           : Main 10@L4@Main
  18. Codec ID                                 : V_MPEGH/ISO/HEVC
  19. Duration                                 : 1 h 38 min
  20. Bit rate                                 : 9 029 kb/s
  21. Width                                    : 1 920 pixels
  22. Height                                   : 808 pixels
  23. Display aspect ratio                     : 2.40:1
  24. Frame rate mode                          : Constant
  25. Frame rate                               : 24.000 FPS
  26. Color space                              : YUV
  27. Chroma subsampling                       : 4:2:0
  28. Bit depth                                : 10 bits
  29. Bits/(Pixel*Frame)                       : 0.243
  30. Stream size                              : 6.18 GiB (87%)
  31. Writing library                          : x265 2.5+2-18fa144d453e:[Windows][GCC 7.1.0][64 bit] 10bit
  32. Encoding settings                        : cpuid=533541173503 / frame-threads=3 / numa-pools=8 / wpp / no-pmode / no-pme / no-psnr / no-ssim / log-level=2 / input-csp=1 / input-res=1920x808 / interlace=0 / total-frames=141213 / level-idc=0 / high-tier=1 / uhd-bd=0 / ref=5 / no-allow-non-conformance / no-repeat-headers / annexb / no-aud / no-hrd / info / hash=0 / no-temporal-layers / no-open-gop / min-keyint=1 / keyint=360 / bframes=8 / b-adapt=2 / b-pyramid / bframe-bias=0 / rc-lookahead=40 / lookahead-slices=4 / NTMzNTQ=uuDQuD2mJt9fsCf / scenecut=40 / no-intra-refresh / ctu=32 / min-cu-size=8 / rect / no-amp / max-tu-size=16 / tu-inter-depth=2 / tu-intra-depth=2 / limit-tu=4 / rdoq-level=1 / dynamic-rd=0.00 / ssim-rd / signhide / no-tskip / nr-intra=0 / nr-inter=0 / no-constrained-intra / no-strong-intra-smoothing / max-merge=3 / limit-refs=2 / limit-modes / me=3 / subme=5 / merange=25 / temporal-mvp / weightp / weightb / no-analyze-src-pics / deblock=-1:-1 / no-sao / no-sao-non-deblock / rd=4 / no-early-skip / rskip / no-fast-intra / no-tskip-fast / no-cu-lossless / b-intra / rdpenalty=1 / psy-rd=0.00 / psy-rdoq=3.00 / no-rd-refine / analysis-reuse-mode=0 / no-lossless / cbqpoffs=-2 / crqpoffs=-2 / rc=crf / crf=20.0 / qcomp=0.70 / qpstep=4 / stats-write=0 / stats-read=0 / ipratio=1.40 / pbratio=1.30 / aq-mode=2 / aq-strength=0.80 / cutree / zone-count=0 / no-strict-cbr / qg-size=16 / no-rc-grain / qpmax=69 / qpmin=0 / no-const-vbv / sar=1 / overscan=0 / videoformat=5 / range=0 / colorprim=1 / transfer=2 / colormatrix=2 / chromaloc=0 / display-window=0 / max-cll=0,0 / min-luma=0 / max-luma=1023 / log2-max-poc-lsb=8 / vui-timing-info / vui-hrd-info / slices=1 / opt-qp-pps / opt-ref-list-length-pps / no-multi-pass-opt-rps / scenecut-bias=0.05 / no-opt-cu-delta-qp / no-aq-motion / no-hdr / no-hdr-opt / no-dhdr10-opt / analysis-reuse-level=5 / scale-factor=0 / refine-intra=0 / refine-inter=0 / refine-mv=0 / no-limit-sao / ctu-info=0
  33. Language                                 : Chinese
  34. Default                                  : Yes
  35. Forced                                   : No
  36. Color range                              : Limited
  37. Color primaries                          : BT.709
  38. Audio #1
  39. ID                                       : 2
  40. Format                                   : AC-3
  41. Format/Info                              : Audio Coding 3
  42. Commercial name                          : Dolby Digital
  43. Codec ID                                 : A_AC3
  44. Duration                                 : 1 h 38 min
  45. Bit rate mode                            : Constant
  46. Bit rate                                 : 640 kb/s
  47. Channel(s)                               : 6 channels
  48. Channel layout                           : L R C LFE Ls Rs
  49. Sampling rate                            : 48.0 kHz
  50. Frame rate                               : 31.250 FPS (1536 SPF)
  51. Compression mode                         : Lossy
  52. Stream size                              : 449 MiB (6%)
  53. Title                                    : 粤语
  54. Language                                 : Chinese
  55. Service kind                             : Complete Main
  56. Default                                  : Yes
  57. Forced                                   : No
  58. Audio #2
  59. ID                                       : 3
  60. Format                                   : AC-3
  61. Format/Info                              : Audio Coding 3
  62. Commercial name                          : Dolby Digital
  63. Codec ID                                 : A_AC3
  64. Duration                                 : 1 h 38 min
  65. Bit rate mode                            : Constant
  66. Bit rate                                 : 640 kb/s
  67. Channel(s)                               : 6 channels
  68. Channel layout                           : L R C LFE Ls Rs
  69. Sampling rate                            : 48.0 kHz
  70. Frame rate                               : 31.250 FPS (1536 SPF)
  71. Compression mode                         : Lossy
  72. Stream size                              : 449 MiB (6%)
  73. Title                                    : 国语
  74. Language                                 : Chinese
  75. Service kind                             : Complete Main
  76. Default                                  : No
  77. Forced                                   : No
  78. Text #1
  79. ID                                       : 4
  80. Format                                   : PGS
  81. Muxing mode                              : zlib
  82. Codec ID                                 : S_HDMV/PGS
  83. Codec ID/Info                            : Picture based subtitle format used on BDs/HD-DVDs
  84. Duration                                 : 1 h 31 min
  85. Bit rate                                 : 27.1 kb/s
  86. Count of elements                        : 2093
  87. Stream size                              : 17.8 MiB (0%)
  88. Title                                    : 繁体
  89. Language                                 : Chinese
  90. Default                                  : Yes
  91. Forced                                   : No
  92. Text #2
  93. ID                                       : 5
  94. Format                                   : PGS
  95. Muxing mode                              : zlib
  96. Codec ID                                 : S_HDMV/PGS
  97. Codec ID/Info                            : Picture based subtitle format used on BDs/HD-DVDs
  98. Duration                                 : 1 h 31 min
  99. Bit rate                                 : 27.4 kb/s
  100. Count of elements                        : 2102
  101. Stream size                              : 18.0 MiB (0%)
  102. Title                                    : 简体
  103. Language                                 : Chinese
  104. Default                                  : No
  105. Forced                                   : No
  106. Text #3
  107. ID                                       : 6
  108. Format                                   : PGS
  109. Muxing mode                              : zlib
  110. Codec ID                                 : S_HDMV/PGS
  111. Codec ID/Info                            : Picture based subtitle format used on BDs/HD-DVDs
  112. Duration                                 : 1 h 31 min
  113. Bit rate                                 : 32.5 kb/s
  114. Count of elements                        : 2114
  115. Stream size                              : 21.3 MiB (0%)
  116. Language                                 : English
  117. Default                                  : No
  118. Forced                                   : No





此处一般会放置磁力链或种子下载链接,不过此链接需要注册会员才能看到,点击“立即注册”
磁力链下载【下载链接仅对注册会员开放,登陆后可见】
BT9527电影天堂 1、BT9527电影天堂提供的BT文件均来源于互联网抓取,只供网友学习交流、技术提升使用。
2、我们遵守BitTorrent点对点协议原则,任何版权问题请联系原资源发布商,我们不处理任何版权纠纷,谢谢!如有争议请联系邮箱:BT9527#hotmail.com(#换成@)
3、如果您发现某页面或地址有错误,请联系站长邮箱BT9527#hotmail.com(#换成@),我们会尽快处理。您的热心是对BT9527电影天堂最大的支持。
4、本站建议去正规影院观看电影以支持电影行业发展。
最新回复 (0)

你可以在 登录 or 注册 后,对此帖发表评论!

返回
发新帖