55步[国英多音轨/简英字幕].55.Steps.2017.1080p.BluRay.DTS.2Audio.x265-10bit-ENTHD 5.24GB

版主小s 10天前 65

✔资源类型:暂未分类   ✔电影年份:2017   ✔电影地区:其他   ✔电影分类:剧情

◎译  名 55步 / 美丽心境界(台) / Eleanor and Colett / Eleanor & Colette
◎片  名 55 Steps
◎年  代 2017
◎产  地 德国 / 比利时
◎类  别 剧情 / 传记
◎语  言 英语
◎上映日期 2017-09-07(多伦多电影节)
◎IMDb链接 https://www.imdb.com/title/tt4459156/
◎豆瓣评分 8.1/10 (1635人评价)
◎豆瓣链接 https://movie.douban.com/subject/26371229/
◎片  长 115分钟
◎导  演 比利·奥古斯特 Bille August (id:1041311)
◎编  剧 马克·布鲁斯·罗森 Mark Bruce Rosin (id:1403360)
◎演  员 海伦娜·伯翰·卡特 Helena Bonham Carter (id:1016680)
       希拉里·斯万克 Hilary Swank (id:1054411)
       杰弗里·塔伯 Jeffrey Tambor (id:1010578)
       约翰·海尔登贝格 Johan Heldenbergh (id:1286385)
       蒂姆· 普莱斯特 Tim Plester (id:1050406)
       迈克尔·卡尔金 Michael Culkin (id:1338040)
       乔纳森·克里根 Jonathan Kerrigan (id:1106325)
       理查德·莱恩 Richard Laing (id:1313126)
       理查德·瑞德尔 Richard Riddell (id:1018054)
       娜塔莉亚·罗曼诺娃 Natalia Romanova (id:1420501)

◎简  介
  海伦娜·伯翰·卡特饰演了一位对医疗机构制度不满的精神病人,她持续反抗,希望病人们的待遇得到改善。希拉里·斯万克饰演的律师偶然之下代理了这个案子,她没有想到的是,这个病人的坚韧和勇敢最终感染了自己,令这份只为交差的工作变成了她为之奋斗一生的事业。
  1. ##### MediaInfo ######
  2. General
  3. Unique ID                                : 269875348747776994506052165226253578862 (0xCB0819FE8F642503128648D87960F26E)
  4. Complete name                            : 55.Steps.2017.1080p.BluRay.DTS.2Audio.x265-10bit-ENTHD.mkv
  5. Format                                   : Matroska
  6. Format version                           : Version 4
  7. File size                                : 5.24 GiB
  8. Duration                                 : 1 h 54 min
  9. Overall bit rate                         : 6 568 kb/s
  10. Movie name                               : 55 Steps 2017 1080p BluRay DTS 2Audio x265-10bit-HDS
  11. Encoded date                             : UTC 2022-06-14 07:37:23
  12. Writing application                      : mkvmerge v67.0.0 ('Under Stars') 64-bit
  13. Writing library                          : libebml v1.4.2 + libmatroska v1.6.4
  14. Video
  15. ID                                       : 1
  16. Format                                   : HEVC
  17. Format/Info                              : High Efficiency Video Coding
  18. Format profile                           : Main 10@L5.1@High
  19. Codec ID                                 : V_MPEGH/ISO/HEVC
  20. Duration                                 : 1 h 54 min
  21. Bit rate                                 : 4 829 kb/s
  22. Width                                    : 1 920 pixels
  23. Height                                   : 804 pixels
  24. Display aspect ratio                     : 2.40:1
  25. Frame rate mode                          : Constant
  26. Frame rate                               : 23.976 (24000/1001/53354) FPS
  27. Color space                              : YUV
  28. Chroma subsampling                       : 4:2:0
  29. Bit depth                                : 10 bits
  30. Bits/(Pixel*Frame)                       : 0.130
  31. Stream size                              : 3.86 GiB (74%)
  32. Title                                    : cofunlau@HDSky
  33. Writing library                          : x265 - H.265/HEVC codec
  34. Default                                  : Yes
  35. Forced                                   : No
  36. Audio #1
  37. ID                                       : 2
  38. Format                                   : DTS
  39. Format/Info                              : Digital Theater Systems
  40. Codec ID                                 : A_DTS
  41. Duration                                 : 1 h 54 min
  42. Bit rate mode                            : Constant
  43. Bit rate                                 : 1 509 kb/s
  44. Channel(s)                               : 6 channels
  45. Channel layout                           : C L R Ls Rs LFE
  46. Sampling rate                            : 48.0 kHz
  47. Frame rate                               : 93.750 FPS (512 SPF)
  48. Bit depth                                : 24 bits
  49. Compression mode                         : Lossy
  50. Stream size                              : 1.20 GiB (23%)
  51. Title                                    : English
  52. Language                                 : English
  53. Default                                  : Yes
  54. Forced                                   : No
  55. Audio #2
  56. ID                                       : 3
  57. Format                                   : AC-3
  58. Format/Info                              : Audio Coding 3
  59. Commercial name                          : Dolby Digital
  60. Codec ID                                 : A_AC3
  61. Duration                                 : 1 h 54 min
  62. Bit rate mode                            : Constant
  63. Bit rate                                 : 192 kb/s
  64. Channel(s)                               : 2 channels
  65. Channel layout                           : L R
  66. Sampling rate                            : 48.0 kHz
  67. Frame rate                               : 31.250 FPS (1536 SPF)
  68. Compression mode                         : Lossy
  69. Stream size                              : 157 MiB (3%)
  70. Title                                    : Mandarin
  71. Language                                 : Chinese
  72. Service kind                             : Complete Main
  73. Default                                  : Yes
  74. Forced                                   : No
  75. Text #1
  76. ID                                       : 4
  77. Format                                   : PGS
  78. Muxing mode                              : zlib
  79. Codec ID                                 : S_HDMV/PGS
  80. Codec ID/Info                            : Picture based subtitle format used on BDs/HD-DVDs
  81. Duration                                 : 1 h 48 min
  82. Bit rate                                 : 30.6 kb/s
  83. Count of elements                        : 3192
  84. Stream size                              : 23.8 MiB (0%)
  85. Title                                    : CHS
  86. Language                                 : Chinese
  87. Default                                  : Yes
  88. Forced                                   : No
  89. Text #2
  90. ID                                       : 5
  91. Format                                   : PGS
  92. Muxing mode                              : zlib
  93. Codec ID                                 : S_HDMV/PGS
  94. Codec ID/Info                            : Picture based subtitle format used on BDs/HD-DVDs
  95. Duration                                 : 1 h 51 min
  96. Bit rate                                 : 45.5 kb/s
  97. Count of elements                        : 3398
  98. Stream size                              : 36.1 MiB (1%)
  99. Title                                    : ENG
  100. Language                                 : English
  101. Default                                  : Yes
  102. Forced                                   : No
  103. Menu
  104. 00:00:00.000                             : en:第 01 章
  105. 00:10:04.479                             : en:第 02 章
  106. 00:20:03.744                             : en:第 03 章
  107. 00:30:03.135                             : en:第 04 章
  108. 00:40:07.655                             : en:第 05 章
  109. 00:50:03.042                             : en:第 06 章
  110. 01:00:06.228                             : en:第 07 章
  111. 01:10:03.950                             : en:第 08 章
  112. 01:20:04.133                             : en:第 09 章
  113. 01:30:07.193                             : en:第 10 章
  114. 01:40:05.917                             : en:第 11 章
  115. 01:47:46.960                             : en:第 12 章
  116. 01:54:05.213                             : en:第 13 章





此处一般会放置磁力链或种子下载链接,不过此链接需要注册会员才能看到,点击“立即注册”
磁力链下载【下载链接仅对注册会员开放,登陆后可见】
BT9527电影天堂 1、BT9527电影天堂提供的BT文件均来源于互联网抓取,只供网友学习交流、技术提升使用。
2、我们遵守BitTorrent点对点协议原则,任何版权问题请联系原资源发布商,我们不处理任何版权纠纷,谢谢!如有争议请联系邮箱:BT9527#hotmail.com(#换成@)
3、如果您发现某页面或地址有错误,请联系站长邮箱BT9527#hotmail.com(#换成@),我们会尽快处理。您的热心是对BT9527电影天堂最大的支持。
4、本站建议去正规影院观看电影以支持电影行业发展。
最新回复 (0)

你可以在 登录 or 注册 后,对此帖发表评论!

返回
发新帖