天怒[中文字幕].The.Wrath.of.God.2022.SPANISH.1080p.NF.WEBRip.DDP5.1.x264-SMURF 3.14GB

版主小s 13天前 106

✔资源类型:WEB-1080P   ✔电影年份:2022   ✔电影地区:其他   ✔电影分类:其他

RARBG.jpg (32.79 KB, 下载次数: 0)

下载附件

2 小时前 上传


Douban.jpg (3.51 KB, 下载次数: 0)

下载附件

2 小时前 上传



◎译  名 天怒 / The Wrath of God
◎片  名 La Ira de Dios
◎年  代 2022
◎产  地 阿根廷
◎上映日期 2022-06-15(阿根廷)
◎IMDb链接 https://www.imdb.com/title/tt15189534/
◎豆瓣链接 https://movie.douban.com/subject/35872431/

◎简  介
  露西亚娜曾为一位著名小说家工作,她确信家人的悲惨死亡由此人一手策划,于是求助一名记者揭露事情的真相。
  1. Video
  2. ID                                       : 1
  3. Format                                   : AVC
  4. Format/Info                              : Advanced Video Codec
  5. Format profile                           : High@L4
  6. Format settings                          : CABAC / 4 Ref Frames
  7. Format settings, CABAC                   : Yes
  8. Format settings, Reference frames        : 4 frames
  9. Codec ID                                 : V_MPEG4/ISO/AVC
  10. Duration                                 : 1 h 38 min
  11. Bit rate mode                            : Variable
  12. Bit rate                                 : 3 277 kb/s
  13. Maximum bit rate                         : 20.0 Mb/s
  14. Width                                    : 1 920 pixels
  15. Height                                   : 1 080 pixels
  16. Display aspect ratio                     : 16:9
  17. Frame rate mode                          : Constant
  18. Frame rate                               : 23.976 (24000/1001/53354) FPS
  19. Color space                              : YUV
  20. Chroma subsampling                       : 4:2:0
  21. Bit depth                                : 8 bits
  22. Scan type                                : Progressive
  23. Bits/(Pixel*Frame)                       : 0.066
  24. Stream size                              : 2.25 GiB (72%)
  25. Writing library                          : x264 core 148 r2727 7d026e8
  26. Encoding settings                        : cabac=1 / ref=4 / deblock=1:0:0 / analyse=0x3:0x111 / me=umh / subme=10 / psy=1 / psy_rd=1.00:0.00 / mixed_ref=1 / me_range=120 / chroma_me=1 / trellis=2 / 8x8dct=1 / cqm=0 / deadzone=21,11 / fast_pskip=1 / chroma_qp_offset=-2 / threads=8 / lookahead_threads=2 / sliced_threads=0 / nr=0 / decimate=1 / interlaced=0 / NTMzNTQ= / bluray_compat=0 / stitchable=1 / constrained_intra=0 / bframes=16 / b_pyramid=2 / b_adapt=2 / b_bias=0 / direct=3 / weightb=1 / open_gop=0 / weightp=2 / keyint=240 / keyint_min=121 / scenecut=0 / intra_refresh=0 / rc_lookahead=240 / rc=crf / mbtree=1 / crf=16.0 / qcomp=0.50 / qpmin=6 / qpmax=51 / qpstep=4 / vbv_maxrate=20000 / vbv_bufsize=25000 / crf_max=0.0 / nal_hrd=vbr / filler=0 / NTMzNTQ=LmsMAP37EqsCpk / ip_ratio=1.40 / aq=1:0.80
  27. Default                                  : Yes
  28. Forced                                   : No

  29. Audio #1
  30. ID                                       : 2
  31. Format                                   : E-AC-3
  32. Format/Info                              : Enhanced AC-3
  33. Commercial name                          : Dolby Digital Plus
  34. Codec ID                                 : A_EAC3
  35. Duration                                 : 1 h 38 min
  36. Bit rate mode                            : Constant
  37. Bit rate                                 : 640 kb/s
  38. Channel(s)                               : 6 channels
  39. Channel layout                           : L R C LFE Ls Rs
  40. Sampling rate                            : 48.0 kHz
  41. Frame rate                               : 31.250 FPS (1536 SPF)
  42. Compression mode                         : Lossy
  43. Stream size                              : 451 MiB (14%)
  44. Title                                    : Latin American
  45. Language                                 : Spanish
  46. Service kind                             : Complete Main
  47. Default                                  : Yes
  48. Forced                                   : No

  49. Audio #2
  50. ID                                       : 3
  51. Format                                   : E-AC-3
  52. Format/Info                              : Enhanced AC-3
  53. Commercial name                          : Dolby Digital Plus
  54. Codec ID                                 : A_EAC3
  55. Duration                                 : 1 h 38 min
  56. Bit rate mode                            : Constant
  57. Bit rate                                 : 640 kb/s
  58. Channel(s)                               : 6 channels
  59. Channel layout                           : L R C LFE Ls Rs
  60. Sampling rate                            : 48.0 kHz
  61. Frame rate                               : 31.250 FPS (1536 SPF)
  62. Compression mode                         : Lossy
  63. Stream size                              : 451 MiB (14%)
  64. Language                                 : English
  65. Service kind                             : Complete Main
  66. Default                                  : No
  67. Forced                                   : No

  68. Text #1
  69. ID                                       : 4
  70. Format                                   : UTF-8
  71. Codec ID                                 : S_TEXT/UTF8
  72. Codec ID/Info                            : UTF-8 Plain Text
  73. Duration                                 : 1 h 34 min
  74. Bit rate                                 : 0 b/s
  75. Count of elements                        : 20
  76. Stream size                              : 512 Bytes (0%)
  77. Title                                    : Forced
  78. Language                                 : English
  79. Default                                  : No
  80. Forced                                   : No

  81. Text #2
  82. ID                                       : 5
  83. Format                                   : UTF-8
  84. Codec ID                                 : S_TEXT/UTF8
  85. Codec ID/Info                            : UTF-8 Plain Text
  86. Duration                                 : 1 h 32 min
  87. Bit rate                                 : 62 b/s
  88. Count of elements                        : 1319
  89. Stream size                              : 42.1 KiB (0%)
  90. Title                                    : Latin American (SDH)
  91. Language                                 : Spanish
  92. Default                                  : No
  93. Forced                                   : No

  94. Text #3
  95. ID                                       : 6
  96. Format                                   : UTF-8
  97. Codec ID                                 : S_TEXT/UTF8
  98. Codec ID/Info                            : UTF-8 Plain Text
  99. Duration                                 : 1 h 36 min
  100. Bit rate                                 : 87 b/s
  101. Count of elements                        : 1256
  102. Stream size                              : 61.9 KiB (0%)
  103. Language                                 : Arabic
  104. Default                                  : No
  105. Forced                                   : No

  106. Text #4
  107. ID                                       : 7
  108. Format                                   : UTF-8
  109. Codec ID                                 : S_TEXT/UTF8
  110. Codec ID/Info                            : UTF-8 Plain Text
  111. Duration                                 : 1 h 36 min
  112. Bit rate                                 : 47 b/s
  113. Count of elements                        : 1257
  114. Stream size                              : 33.8 KiB (0%)
  115. Language                                 : Czech
  116. Default                                  : No
  117. Forced                                   : No

  118. Text #5
  119. ID                                       : 8
  120. Format                                   : UTF-8
  121. Codec ID                                 : S_TEXT/UTF8
  122. Codec ID/Info                            : UTF-8 Plain Text
  123. Duration                                 : 1 h 36 min
  124. Bit rate                                 : 51 b/s
  125. Count of elements                        : 1073
  126. Stream size                              : 36.4 KiB (0%)
  127. Language                                 : Danish
  128. Default                                  : No
  129. Forced                                   : No

  130. Text #6
  131. ID                                       : 9
  132. Format                                   : UTF-8
  133. Codec ID                                 : S_TEXT/UTF8
  134. Codec ID/Info                            : UTF-8 Plain Text
  135. Duration                                 : 1 h 36 min
  136. Bit rate                                 : 48 b/s
  137. Count of elements                        : 1216
  138. Stream size                              : 34.5 KiB (0%)
  139. Language                                 : German
  140. Default                                  : No
  141. Forced                                   : No

  142. Text #7
  143. ID                                       : 10
  144. Format                                   : UTF-8
  145. Codec ID                                 : S_TEXT/UTF8
  146. Codec ID/Info                            : UTF-8 Plain Text
  147. Duration                                 : 1 h 36 min
  148. Bit rate                                 : 88 b/s
  149. Count of elements                        : 1159
  150. Stream size                              : 62.4 KiB (0%)
  151. Language                                 : Greek
  152. Default                                  : No
  153. Forced                                   : No

  154. Text #8
  155. ID                                       : 11
  156. Format                                   : UTF-8
  157. Codec ID                                 : S_TEXT/UTF8
  158. Codec ID/Info                            : UTF-8 Plain Text
  159. Duration                                 : 1 h 36 min
  160. Bit rate                                 : 52 b/s
  161. Count of elements                        : 1265
  162. Stream size                              : 36.9 KiB (0%)
  163. Language                                 : English
  164. Default                                  : No
  165. Forced                                   : No

  166. Text #9
  167. ID                                       : 12
  168. Format                                   : UTF-8
  169. Codec ID                                 : S_TEXT/UTF8
  170. Codec ID/Info                            : UTF-8 Plain Text
  171. Duration                                 : 1 h 36 min
  172. Bit rate                                 : 51 b/s
  173. Count of elements                        : 1234
  174. Stream size                              : 36.6 KiB (0%)
  175. Language                                 : English
  176. Default                                  : No
  177. Forced                                   : No

  178. Text #10
  179. ID                                       : 13
  180. Format                                   : UTF-8
  181. Codec ID                                 : S_TEXT/UTF8
  182. Codec ID/Info                            : UTF-8 Plain Text
  183. Duration                                 : 1 h 36 min
  184. Bit rate                                 : 51 b/s
  185. Count of elements                        : 952
  186. Stream size                              : 36.3 KiB (0%)
  187. Language                                 : Finnish
  188. Default                                  : No
  189. Forced                                   : No

  190. Text #11
  191. ID                                       : 14
  192. Format                                   : UTF-8
  193. Codec ID                                 : S_TEXT/UTF8
  194. Codec ID/Info                            : UTF-8 Plain Text
  195. Duration                                 : 1 h 36 min
  196. Bit rate                                 : 50 b/s
  197. Count of elements                        : 1202
  198. Stream size                              : 35.7 KiB (0%)
  199. Language                                 : French
  200. Default                                  : No
  201. Forced                                   : No

  202. Text #12
  203. ID                                       : 15
  204. Format                                   : UTF-8
  205. Codec ID                                 : S_TEXT/UTF8
  206. Codec ID/Info                            : UTF-8 Plain Text
  207. Duration                                 : 1 h 36 min
  208. Bit rate                                 : 80 b/s
  209. Count of elements                        : 1203
  210. Stream size                              : 56.9 KiB (0%)
  211. Language                                 : Hebrew
  212. Default                                  : No
  213. Forced                                   : No

  214. Text #13
  215. ID                                       : 16
  216. Format                                   : UTF-8
  217. Codec ID                                 : S_TEXT/UTF8
  218. Codec ID/Info                            : UTF-8 Plain Text
  219. Duration                                 : 1 h 36 min
  220. Bit rate                                 : 43 b/s
  221. Count of elements                        : 1236
  222. Stream size                              : 31.0 KiB (0%)
  223. Language                                 : Croatian
  224. Default                                  : No
  225. Forced                                   : No

  226. Text #14
  227. ID                                       : 17
  228. Format                                   : UTF-8
  229. Codec ID                                 : S_TEXT/UTF8
  230. Codec ID/Info                            : UTF-8 Plain Text
  231. Duration                                 : 1 h 36 min
  232. Bit rate                                 : 52 b/s
  233. Count of elements                        : 1184
  234. Stream size                              : 37.3 KiB (0%)
  235. Language                                 : Hungarian
  236. Default                                  : No
  237. Forced                                   : No

  238. Text #15
  239. ID                                       : 18
  240. Format                                   : UTF-8
  241. Codec ID                                 : S_TEXT/UTF8
  242. Codec ID/Info                            : UTF-8 Plain Text
  243. Duration                                 : 1 h 36 min
  244. Bit rate                                 : 52 b/s
  245. Count of elements                        : 1233
  246. Stream size                              : 37.4 KiB (0%)
  247. Language                                 : Indonesian
  248. Default                                  : No
  249. Forced                                   : No

  250. Text #16
  251. ID                                       : 19
  252. Format                                   : UTF-8
  253. Codec ID                                 : S_TEXT/UTF8
  254. Codec ID/Info                            : UTF-8 Plain Text
  255. Duration                                 : 1 h 36 min
  256. Bit rate                                 : 50 b/s
  257. Count of elements                        : 1239
  258. Stream size                              : 35.8 KiB (0%)
  259. Language                                 : Italian
  260. Default                                  : No
  261. Forced                                   : No

  262. Text #17
  263. ID                                       : 20
  264. Format                                   : UTF-8
  265. Codec ID                                 : S_TEXT/UTF8
  266. Codec ID/Info                            : UTF-8 Plain Text
  267. Duration                                 : 1 h 36 min
  268. Bit rate                                 : 54 b/s
  269. Count of elements                        : 1183
  270. Stream size                              : 38.6 KiB (0%)
  271. Language                                 : Japanese
  272. Default                                  : No
  273. Forced                                   : No

  274. Text #18
  275. ID                                       : 21
  276. Format                                   : UTF-8
  277. Codec ID                                 : S_TEXT/UTF8
  278. Codec ID/Info                            : UTF-8 Plain Text
  279. Duration                                 : 1 h 36 min
  280. Bit rate                                 : 66 b/s
  281. Count of elements                        : 1289
  282. Stream size                              : 47.0 KiB (0%)
  283. Language                                 : Korean
  284. Default                                  : No
  285. Forced                                   : No

  286. Text #19
  287. ID                                       : 22
  288. Format                                   : UTF-8
  289. Codec ID                                 : S_TEXT/UTF8
  290. Codec ID/Info                            : UTF-8 Plain Text
  291. Duration                                 : 1 h 36 min
  292. Bit rate                                 : 51 b/s
  293. Count of elements                        : 1142
  294. Stream size                              : 36.1 KiB (0%)
  295. Language                                 : Malay
  296. Default                                  : No
  297. Forced                                   : No

  298. Text #20
  299. ID                                       : 23
  300. Format                                   : UTF-8
  301. Codec ID                                 : S_TEXT/UTF8
  302. Codec ID/Info                            : UTF-8 Plain Text
  303. Duration                                 : 1 h 36 min
  304. Bit rate                                 : 49 b/s
  305. Count of elements                        : 1022
  306. Stream size                              : 34.8 KiB (0%)
  307. Language                                 : Norwegian Bokmal
  308. Default                                  : No
  309. Forced                                   : No

  310. Text #21
  311. ID                                       : 24
  312. Format                                   : UTF-8
  313. Codec ID                                 : S_TEXT/UTF8
  314. Codec ID/Info                            : UTF-8 Plain Text
  315. Duration                                 : 1 h 36 min
  316. Bit rate                                 : 50 b/s
  317. Count of elements                        : 1025
  318. Stream size                              : 35.4 KiB (0%)
  319. Language                                 : Dutch
  320. Default                                  : No
  321. Forced                                   : No

  322. Text #22
  323. ID                                       : 25
  324. Format                                   : UTF-8
  325. Codec ID                                 : S_TEXT/UTF8
  326. Codec ID/Info                            : UTF-8 Plain Text
  327. Duration                                 : 1 h 36 min
  328. Bit rate                                 : 42 b/s
  329. Count of elements                        : 1097
  330. Stream size                              : 29.7 KiB (0%)
  331. Language                                 : Polish
  332. Default                                  : No
  333. Forced                                   : No

  334. Text #23
  335. ID                                       : 26
  336. Format                                   : UTF-8
  337. Codec ID                                 : S_TEXT/UTF8
  338. Codec ID/Info                            : UTF-8 Plain Text
  339. Duration                                 : 1 h 31 min
  340. Bit rate                                 : 61 b/s
  341. Count of elements                        : 1279
  342. Stream size                              : 41.2 KiB (0%)
  343. Title                                    : Brazilian
  344. Language                                 : Portuguese
  345. Default                                  : No
  346. Forced                                   : No

  347. Text #24
  348. ID                                       : 27
  349. Format                                   : UTF-8
  350. Codec ID                                 : S_TEXT/UTF8
  351. Codec ID/Info                            : UTF-8 Plain Text
  352. Duration                                 : 1 h 36 min
  353. Bit rate                                 : 50 b/s
  354. Count of elements                        : 1208
  355. Stream size                              : 35.7 KiB (0%)
  356. Title                                    : Brazilian
  357. Language                                 : Portuguese
  358. Default                                  : No
  359. Forced                                   : No

  360. Text #25
  361. ID                                       : 28
  362. Format                                   : UTF-8
  363. Codec ID                                 : S_TEXT/UTF8
  364. Codec ID/Info                            : UTF-8 Plain Text
  365. Duration                                 : 1 h 36 min
  366. Bit rate                                 : 48 b/s
  367. Count of elements                        : 1244
  368. Stream size                              : 34.0 KiB (0%)
  369. Language                                 : Portuguese
  370. Default                                  : No
  371. Forced                                   : No

  372. Text #26
  373. ID                                       : 29
  374. Format                                   : UTF-8
  375. Codec ID                                 : S_TEXT/UTF8
  376. Codec ID/Info                            : UTF-8 Plain Text
  377. Duration                                 : 1 h 36 min
  378. Bit rate                                 : 55 b/s
  379. Count of elements                        : 1188
  380. Stream size                              : 39.5 KiB (0%)
  381. Language                                 : Romanian
  382. Default                                  : No
  383. Forced                                   : No

  384. Text #27
  385. ID                                       : 30
  386. Format                                   : UTF-8
  387. Codec ID                                 : S_TEXT/UTF8
  388. Codec ID/Info                            : UTF-8 Plain Text
  389. Duration                                 : 1 h 36 min
  390. Bit rate                                 : 82 b/s
  391. Count of elements                        : 1245
  392. Stream size                              : 58.5 KiB (0%)
  393. Language                                 : Russian
  394. Default                                  : No
  395. Forced                                   : No

  396. Text #28
  397. ID                                       : 31
  398. Format                                   : UTF-8
  399. Codec ID                                 : S_TEXT/UTF8
  400. Codec ID/Info                            : UTF-8 Plain Text
  401. Duration                                 : 1 h 36 min
  402. Bit rate                                 : 49 b/s
  403. Count of elements                        : 1178
  404. Stream size                              : 34.9 KiB (0%)
  405. Language                                 : Swedish
  406. Default                                  : No
  407. Forced                                   : No

  408. Text #29
  409. ID                                       : 32
  410. Format                                   : UTF-8
  411. Codec ID                                 : S_TEXT/UTF8
  412. Codec ID/Info                            : UTF-8 Plain Text
  413. Duration                                 : 1 h 36 min
  414. Bit rate                                 : 139 b/s
  415. Count of elements                        : 1267
  416. Stream size                              : 98.8 KiB (0%)
  417. Language                                 : Thai
  418. Default                                  : No
  419. Forced                                   : No

  420. Text #30
  421. ID                                       : 33
  422. Format                                   : UTF-8
  423. Codec ID                                 : S_TEXT/UTF8
  424. Codec ID/Info                            : UTF-8 Plain Text
  425. Duration                                 : 1 h 36 min
  426. Bit rate                                 : 49 b/s
  427. Count of elements                        : 1212
  428. Stream size                              : 35.1 KiB (0%)
  429. Language                                 : Turkish
  430. Default                                  : No
  431. Forced                                   : No

  432. Text #31
  433. ID                                       : 34
  434. Format                                   : UTF-8
  435. Codec ID                                 : S_TEXT/UTF8
  436. Codec ID/Info                            : UTF-8 Plain Text
  437. Duration                                 : 1 h 36 min
  438. Bit rate                                 : 85 b/s
  439. Count of elements                        : 1232
  440. Stream size                              : 60.5 KiB (0%)
  441. Language                                 : Ukrainian
  442. Default                                  : No
  443. Forced                                   : No

  444. Text #32
  445. ID                                       : 35
  446. Format                                   : UTF-8
  447. Codec ID                                 : S_TEXT/UTF8
  448. Codec ID/Info                            : UTF-8 Plain Text
  449. Duration                                 : 1 h 36 min
  450. Bit rate                                 : 73 b/s
  451. Count of elements                        : 1109
  452. Stream size                              : 51.6 KiB (0%)
  453. Language                                 : Vietnamese
  454. Default                                  : No
  455. Forced                                   : No

  456. Text #33
  457. ID                                       : 36
  458. Format                                   : UTF-8
  459. Codec ID                                 : S_TEXT/UTF8
  460. Codec ID/Info                            : UTF-8 Plain Text
  461. Duration                                 : 1 h 36 min
  462. Bit rate                                 : 54 b/s
  463. Count of elements                        : 1268
  464. Stream size                              : 38.7 KiB (0%)
  465. Title                                    : Simplified
  466. Language                                 : Chinese
  467. Default                                  : No
  468. Forced                                   : No

  469. Text #34
  470. ID                                       : 37
  471. Format                                   : UTF-8
  472. Codec ID                                 : S_TEXT/UTF8
  473. Codec ID/Info                            : UTF-8 Plain Text
  474. Duration                                 : 1 h 36 min
  475. Bit rate                                 : 52 b/s
  476. Count of elements                        : 1247
  477. Stream size                              : 37.3 KiB (0%)
  478. Title                                    : Traditional
  479. Language                                 : Chinese
  480. Default                                  : No
  481. Forced                                   : No

  482. Menu
  483. 01:32:38.000                             : en:Credits


1.jpg (25.73 KB, 下载次数: 0)

下载附件

2 小时前 上传

2.jpg (15.79 KB, 下载次数: 0)

下载附件

2 小时前 上传

3.jpg (27.62 KB, 下载次数: 0)

下载附件

2 小时前 上传




此处一般会放置磁力链或种子下载链接,不过此链接需要注册会员才能看到,点击“立即注册”
磁力链下载【下载链接仅对注册会员开放,登陆后可见】
BT9527电影天堂 1、BT9527电影天堂提供的BT文件均来源于互联网抓取,只供网友学习交流、技术提升使用。
2、我们遵守BitTorrent点对点协议原则,任何版权问题请联系原资源发布商,我们不处理任何版权纠纷,谢谢!如有争议请联系邮箱:BT9527#hotmail.com(#换成@)
3、如果您发现某页面或地址有错误,请联系站长邮箱BT9527#hotmail.com(#换成@),我们会尽快处理。您的热心是对BT9527电影天堂最大的支持。
4、本站建议去正规影院观看电影以支持电影行业发展。
最新回复 (0)

你可以在 登录 or 注册 后,对此帖发表评论!

返回