亚当斯一家2[国粤英多音轨/简繁英字幕].The.Addams.Family.2.2021.2160p.HDR.UHD.BluRay.DTS.3Audio.x265-10bit-ENTHD 9.04GB

版主小s 19天前 45

✔资源类型:BD-4K   ✔电影年份:2021   ✔电影地区:欧美   ✔电影分类:喜剧

◎译  名 亚当斯一家2 / 爱登士家庭2(港) / 阿达一族2(台)
◎片  名 The Addams Family 2
◎年  代 2021
◎产  地 美国
◎类  别 喜剧 / 动画 / 奇幻
◎语  言 英语
◎上映日期 2021-10-01(美国)
◎IMDb链接 https://www.imdb.com/title/tt11125620/
◎豆瓣评分 6.3/10 (3292人评价)
◎豆瓣链接 https://movie.douban.com/subject/34857667/
◎片  长 93分钟
◎导  演 格雷格·蒂曼 Greg Tiernan (id:1357971)
       康拉德·弗农 Conrad Vernon (id:1009555)
◎编  剧 查尔斯·亚当斯 Charles Addams (id:1014593)
◎演  员 奥斯卡·伊萨克 Oscar Isaac (id:1012481)
       查理兹·塞隆 Charlize Theron (id:1018991)
       科洛·莫瑞兹 Chlo? Grace Moretz (id:1018981)
       尼克·克罗尔 Nick Kroll (id:1321396)
       杰文·旺纳·沃尔顿 Javon 'Wanna' Walton (id:1441609)
       华莱士·肖恩 Wallace Shawn (id:1040504)
       史努比狗狗 Snoop Dogg (id:1027838)
       贝特·米德勒 Bette Midler (id:1055782)
       比尔·哈德尔 Bill Hader (id:1017902)

◎简  介
  动画电影版《亚当斯一家》将拍续集。这部黑暗哥特喜剧刚在北美上映,票房上佳(首周4天3500万美元),米高梅/联美发行公司趁热宣布:《亚当斯一家2》正式定档2021年10月22日北美上映。

◎获奖情况 (共1项)
  第49届动画安妮奖 (2022)
  最佳分镜(提名)

  1. ##### MediaInfo ######
  2. General
  3. Unique ID                                : 21791298582455464307436752916602551722 (0x1064D9F869416F42FF68C84106A1FDAA)
  4. Complete name                            : The.Addams.Family.2.2021.2160p.HDR.UHD.BluRay.DTS.3Audio.x265-10bit-ENTHD.mkv
  5. Format                                   : Matroska
  6. Format version                           : Version 4
  7. File size                                : 9.04 GiB
  8. Duration                                 : 1 h 33 min
  9. Overall bit rate mode                    : Variable
  10. Overall bit rate                         : 13.9 Mb/s
  11. Movie name                               : The Addams Family 2 2021 2160p HDR UHD BluRay DTS 3Audio x265-10bit-HDS
  12. Encoded date                             : UTC 2022-06-14 03:33:04
  13. Writing application                      : mkvmerge v67.0.0 ('Under Stars') 64-bit
  14. Writing library                          : libebml v1.4.2 + libmatroska v1.6.4
  15. Video
  16. ID                                       : 1
  17. Format                                   : HEVC
  18. Format/Info                              : High Efficiency Video Coding
  19. Format profile                           : Main 10@L5.1@High
  20. HDR format                               : SMPTE ST 2086, HDR10 compatible
  21. Codec ID                                 : V_MPEGH/ISO/HEVC
  22. Duration                                 : 1 h 33 min
  23. Bit rate                                 : 10.3 Mb/s
  24. Width                                    : 3 840 pixels
  25. Height                                   : 2 072 pixels
  26. Display aspect ratio                     : 1.85:1
  27. Frame rate mode                          : Constant
  28. Frame rate                               : 24.000 FPS
  29. Color space                              : YUV
  30. Chroma subsampling                       : 4:2:0
  31. Bit depth                                : 10 bits
  32. Bits/(Pixel*Frame)                       : 0.054
  33. Stream size                              : 6.72 GiB (74%)
  34. Title                                    : @HDSky
  35. Writing library                          : x265 - H.265/HEVC codec
  36. Default                                  : Yes
  37. Forced                                   : No
  38. Color range                              : Limited
  39. Color primaries                          : BT.2020
  40. Transfer characteristics                 : PQ
  41. Matrix coefficients                      : BT.2020 non-constant
  42. Mastering display color primaries        : BT.2020
  43. Mastering display luminance              : min: 0.0001 cd/m2, max: 1000 cd/m2
  44. Maximum Content Light Level              : 1000 cd/m2
  45. Audio #1
  46. ID                                       : 2
  47. Format                                   : DTS XLL
  48. Format/Info                              : Digital Theater Systems
  49. Commercial name                          : DTS-HD Master Audio
  50. Codec ID                                 : A_DTS
  51. Duration                                 : 1 h 33 min
  52. Bit rate mode                            : Variable
  53. Bit rate                                 : 2 599 kb/s
  54. Channel(s)                               : 6 channels
  55. Channel layout                           : C L R Ls Rs LFE
  56. Sampling rate                            : 48.0 kHz
  57. Frame rate                               : 93.750 FPS (512 SPF)
  58. Bit depth                                : 16 bits
  59. Compression mode                         : Lossless
  60. Stream size                              : 1.69 GiB (19%)
  61. Title                                    : English
  62. Language                                 : English
  63. Default                                  : Yes
  64. Forced                                   : No
  65. Audio #2
  66. ID                                       : 3
  67. Format                                   : AC-3
  68. Format/Info                              : Audio Coding 3
  69. Commercial name                          : Dolby Digital
  70. Codec ID                                 : A_AC3
  71. Duration                                 : 1 h 31 min
  72. Bit rate mode                            : Constant
  73. Bit rate                                 : 448 kb/s
  74. Channel(s)                               : 6 channels
  75. Channel layout                           : L R C LFE Ls Rs
  76. Sampling rate                            : 48.0 kHz
  77. Frame rate                               : 31.250 FPS (1536 SPF)
  78. Compression mode                         : Lossy
  79. Stream size                              : 293 MiB (3%)
  80. Title                                    : Cantonese
  81. Language                                 : Chinese
  82. Service kind                             : Complete Main
  83. Default                                  : Yes
  84. Forced                                   : No
  85. Audio #3
  86. ID                                       : 4
  87. Format                                   : AC-3
  88. Format/Info                              : Audio Coding 3
  89. Commercial name                          : Dolby Digital
  90. Codec ID                                 : A_AC3
  91. Duration                                 : 1 h 31 min
  92. Bit rate mode                            : Constant
  93. Bit rate                                 : 384 kb/s
  94. Channel(s)                               : 6 channels
  95. Channel layout                           : L R C LFE Ls Rs
  96. Sampling rate                            : 48.0 kHz
  97. Frame rate                               : 31.250 FPS (1536 SPF)
  98. Compression mode                         : Lossy
  99. Stream size                              : 251 MiB (3%)
  100. Title                                    : Mandarin
  101. Language                                 : Chinese
  102. Service kind                             : Complete Main
  103. Default                                  : Yes
  104. Forced                                   : No
  105. Text #1
  106. ID                                       : 5
  107. Format                                   : PGS
  108. Muxing mode                              : zlib
  109. Codec ID                                 : S_HDMV/PGS
  110. Codec ID/Info                            : Picture based subtitle format used on BDs/HD-DVDs
  111. Duration                                 : 1 h 25 min
  112. Bit rate                                 : 53.0 kb/s
  113. Count of elements                        : 3504
  114. Stream size                              : 32.2 MiB (0%)
  115. Title                                    : ENG
  116. Language                                 : English
  117. Default                                  : Yes
  118. Forced                                   : No
  119. Text #2
  120. ID                                       : 6
  121. Format                                   : PGS
  122. Muxing mode                              : zlib
  123. Codec ID                                 : S_HDMV/PGS
  124. Codec ID/Info                            : Picture based subtitle format used on BDs/HD-DVDs
  125. Duration                                 : 1 h 31 min
  126. Bit rate                                 : 29.8 kb/s
  127. Count of elements                        : 2448
  128. Stream size                              : 19.5 MiB (0%)
  129. Title                                    : CHT
  130. Language                                 : Chinese
  131. Default                                  : Yes
  132. Forced                                   : No
  133. Text #3
  134. ID                                       : 7
  135. Format                                   : PGS
  136. Muxing mode                              : zlib
  137. Codec ID                                 : S_HDMV/PGS
  138. Codec ID/Info                            : Picture based subtitle format used on BDs/HD-DVDs
  139. Duration                                 : 1 h 31 min
  140. Bit rate                                 : 28.0 kb/s
  141. Count of elements                        : 2460
  142. Stream size                              : 18.3 MiB (0%)
  143. Title                                    : CHT
  144. Language                                 : Chinese
  145. Default                                  : Yes
  146. Forced                                   : No
  147. Text #4
  148. ID                                       : 8
  149. Format                                   : PGS
  150. Muxing mode                              : zlib
  151. Codec ID                                 : S_HDMV/PGS
  152. Codec ID/Info                            : Picture based subtitle format used on BDs/HD-DVDs
  153. Duration                                 : 1 h 24 min
  154. Bit rate                                 : 37.2 kb/s
  155. Count of elements                        : 2564
  156. Stream size                              : 22.6 MiB (0%)
  157. Title                                    : CHS
  158. Language                                 : Chinese
  159. Default                                  : Yes
  160. Forced                                   : No
  161. Text #5
  162. ID                                       : 9
  163. Format                                   : PGS
  164. Muxing mode                              : zlib
  165. Codec ID                                 : S_HDMV/PGS
  166. Codec ID/Info                            : Picture based subtitle format used on BDs/HD-DVDs
  167. Duration                                 : 1 h 24 min
  168. Bit rate                                 : 59.8 kb/s
  169. Count of elements                        : 2567
  170. Stream size                              : 36.3 MiB (0%)
  171. Title                                    : CHS&ENG
  172. Language                                 : Chinese
  173. Default                                  : Yes
  174. Forced                                   : No
  175. Text #6
  176. ID                                       : 10
  177. Format                                   : PGS
  178. Muxing mode                              : zlib
  179. Codec ID                                 : S_HDMV/PGS
  180. Codec ID/Info                            : Picture based subtitle format used on BDs/HD-DVDs
  181. Duration                                 : 1 h 24 min
  182. Bit rate                                 : 42.8 kb/s
  183. Count of elements                        : 2564
  184. Stream size                              : 26.0 MiB (0%)
  185. Title                                    : CHT
  186. Language                                 : Chinese
  187. Default                                  : Yes
  188. Forced                                   : No
  189. Text #7
  190. ID                                       : 11
  191. Format                                   : PGS
  192. Muxing mode                              : zlib
  193. Codec ID                                 : S_HDMV/PGS
  194. Codec ID/Info                            : Picture based subtitle format used on BDs/HD-DVDs
  195. Duration                                 : 1 h 24 min
  196. Bit rate                                 : 65.4 kb/s
  197. Count of elements                        : 2567
  198. Stream size                              : 39.7 MiB (0%)
  199. Title                                    : CHT&ENG
  200. Language                                 : Chinese
  201. Default                                  : Yes
  202. Forced                                   : No
  203. Menu
  204. 00:00:00.000                             : en:第 01 章
  205. 00:07:31.292                             : en:第 02 章
  206. 00:15:42.625                             : en:第 03 章
  207. 00:24:00.792                             : en:第 04 章
  208. 00:32:11.958                             : en:第 05 章
  209. 00:39:03.333                             : en:第 06 章
  210. 00:46:40.458                             : en:第 07 章
  211. 00:54:57.458                             : en:第 08 章
  212. 01:02:47.583                             : en:第 09 章
  213. 01:09:53.083                             : en:第 10 章
  214. 01:18:04.208                             : en:第 11 章
  215. 01:25:48.125                             : en:第 12 章





此处一般会放置磁力链或种子下载链接,不过此链接需要注册会员才能看到,点击“立即注册”
磁力链下载【下载链接仅对注册会员开放,登陆后可见】
BT9527电影天堂 1、BT9527电影天堂提供的BT文件均来源于互联网抓取,只供网友学习交流、技术提升使用。
2、我们遵守BitTorrent点对点协议原则,任何版权问题请联系原资源发布商,我们不处理任何版权纠纷,谢谢!如有争议请联系邮箱:BT9527#hotmail.com(#换成@)
3、如果您发现某页面或地址有错误,请联系站长邮箱BT9527#hotmail.com(#换成@),我们会尽快处理。您的热心是对BT9527电影天堂最大的支持。
4、本站建议去正规影院观看电影以支持电影行业发展。
最新回复 (0)

你可以在 登录 or 注册 后,对此帖发表评论!

返回
发新帖