父亲的身份[中文字幕].Fatherhood.2021.1080p.BluRay.x264-PiGNUS 10.33GB

版主小s 10天前 213

父亲的身份[中文字幕].Fatherhood.2021.1080p.BluRay.x264-PiGNUS 10.33GB

◎译  名 父亲的身份 / 爸爸进行式(港) / 为父进行式(台) / 爸爸进行时 / 给麦迪的两个吻 / 为父进行时 / Two Kisses for Maddy
◎片  名 Fatherhood
◎年  代 2021
◎产  地 美国
◎类  别 剧情
◎语  言 英语
◎上映日期 2021-06-18(美国网络)
◎IMDb链接 https://www.imdb.com/title/tt4733624/
◎豆瓣评分 6.5/10 (1174人评价)
◎豆瓣链接 https://movie.douban.com/subject/26414810/
◎片  长 109分钟
◎导  演 保罗·韦兹 Paul Weitz (id:1300655)
◎编  剧 达娜·史蒂文斯 Dana Stevens (id:1328358)
       保罗·韦兹 Paul Weitz (id:1300655)
◎演  员 凯文·哈特 Kevin Hart (id:1286162)
       朱利安·凯西 Julian Casey (id:1337404)
       霍莉·G·弗兰克尔 Holly G. Frankel (id:1080627)
       亚瑟·霍尔顿 Arthur Holden (id:1374236)
       阿德里安·M·蒙波因特 Adrian M. Mompoint (id:1413072)
       路易斯·奥利瓦 Luis Oliva (id:1128172)
       保罗·雷瑟 Paul Reiser (id:1000222)
       德汪达·怀斯 DeWanda Wise (id:1418807)
       阿尔法·伍达德 Alfre Woodard (id:1041159)
       里尔·莱尔·哈瓦瑞 Lil Rel Howery (id:1369571)
       艾伦·大卫 Ellen David (id:1280977)
       黛博拉·艾里德 Deborah Ayorinde (id:1369399)
       安东尼·卡里根 Anthony Carrigan (id:1352164)
       斯蒂芬妮·科斯塔 Stephanie Costa (id:1397487)
       玛丽莲·迪恩-罗比齐 Mylène Dinh-Robic (id:1188884)
       查宁·塔图姆 Channing Tatum (id:1031224)
       贝莉·塞恩 Bailey Thain (id:1446877)
       伊内斯·费格霍利·波松 Ines Feghouli Bozon (id:1446879)

◎简  介
  这部暖心、有趣又感人的影片根据真人真事改编,凯文·哈特在剧中饰演的鳏夫在痛失爱妻后承担起一项艰巨任务:当个父亲。

  1. Video
  2. ID                                       : 1
  3. Format                                   : AVC
  4. Format/Info                              : Advanced Video Codec
  5. Format profile                           : High@L4.1
  6. Format settings                          : CABAC / 5 Ref Frames
  7. Format settings, CABAC                   : Yes
  8. Format settings, Reference frames        : 5 frames
  9. Codec ID                                 : V_MPEG4/ISO/AVC
  10. Duration                                 : 1 h 49 min
  11. Bit rate                                 : 11.2 Mb/s
  12. Width                                    : 1 920 pixels
  13. Height                                   : 800 pixels
  14. Display aspect ratio                     : 2.40:1
  15. Frame rate mode                          : Constant
  16. Frame rate                               : 23.976 (24000/1001/53354) FPS
  17. Color space                              : YUV
  18. Chroma subsampling                       : 4:2:0
  19. Bit depth                                : 8 bits
  20. Scan type                                : Progressive
  21. Bits/(Pixel*Frame)                       : 0.305
  22. Stream size                              : 8.56 GiB (83%)
  23. Writing library                          : x264 core 164 r3095 baee400
  24. Encoding settings                        : cabac=1 / ref=5 / deblock=1:-3:-3 / analyse=0x3:0x133 / me=umh / subme=9 / psy=1 / psy_rd=1.00:0.00 / mixed_ref=1 / me_range=16 / chroma_me=1 / trellis=2 / 8x8dct=1 / cqm=0 / deadzone=21,11 / fast_pskip=1 / chroma_qp_offset=-2 / threads=25 / lookahead_threads=2 / sliced_threads=0 / nr=0 / decimate=1 / interlaced=0 / NTMzNTQ= / bluray_compat=0 / constrained_intra=0 / bframes=3 / b_pyramid=2 / b_adapt=2 / b_bias=0 / direct=3 / weightb=1 / open_gop=0 / weightp=2 / keyint=250 / keyint_min=23 / NTMzNTQ=uuDQuD2mJt9fsCf / scenecut=40 / intra_refresh=0 / rc_lookahead=60 / rc=crf / mbtree=1 / crf=15.5 / qcomp=0.60 / qpmin=0 / qpmax=69 / qpstep=4 / NTMzNTQ=LmsMAP37EqsCpk / ip_ratio=1.40 / aq=1:1.00
  25. Default                                  : Yes
  26. Forced                                   : No
  27. Audio
  28. ID                                       : 2
  29. Format                                   : DTS XLL
  30. Format/Info                              : Digital Theater Systems
  31. Commercial name                          : DTS-HD Master Audio
  32. Codec ID                                 : A_DTS
  33. Duration                                 : 1 h 49 min
  34. Bit rate mode                            : Variable
  35. Bit rate                                 : 2 108 kb/s
  36. Channel(s)                               : 6 channels
  37. Channel layout                           : C L R Ls Rs LFE
  38. Sampling rate                            : 48.0 kHz
  39. Frame rate                               : 93.750 FPS (512 SPF)
  40. Bit depth                                : 16 bits
  41. Compression mode                         : Lossless
  42. Stream size                              : 1.61 GiB (16%)
  43. Language                                 : English
  44. Default                                  : Yes
  45. Forced                                   : No
  46. Text #1
  47. ID                                       : 3
  48. Format                                   : PGS
  49. Muxing mode                              : zlib
  50. Codec ID                                 : S_HDMV/PGS
  51. Codec ID/Info                            : Picture based subtitle format used on BDs/HD-DVDs
  52. Duration                                 : 1 h 44 min
  53. Bit rate                                 : 51.7 kb/s
  54. Count of elements                        : 3998
  55. Stream size                              : 38.6 MiB (0%)
  56. Title                                    : English SDH
  57. Language                                 : English
  58. Default                                  : No
  59. Forced                                   : No
  60. Text #2
  61. ID                                       : 4
  62. Format                                   : PGS
  63. Muxing mode                              : zlib
  64. Codec ID                                 : S_HDMV/PGS
  65. Codec ID/Info                            : Picture based subtitle format used on BDs/HD-DVDs
  66. Duration                                 : 1 h 42 min
  67. Bit rate                                 : 47.6 kb/s
  68. Count of elements                        : 3640
  69. Stream size                              : 34.9 MiB (0%)
  70. Title                                    : English
  71. Language                                 : English
  72. Default                                  : No
  73. Forced                                   : No
  74. Text #3
  75. ID                                       : 5
  76. Format                                   : PGS
  77. Muxing mode                              : zlib
  78. Codec ID                                 : S_HDMV/PGS
  79. Codec ID/Info                            : Picture based subtitle format used on BDs/HD-DVDs
  80. Duration                                 : 1 h 48 min
  81. Bit rate                                 : 38.2 kb/s
  82. Count of elements                        : 3660
  83. Stream size                              : 29.6 MiB (0%)
  84. Title                                    : Chinese
  85. Language                                 : Chinese
  86. Default                                  : No
  87. Forced                                   : No
  88. Text #4
  89. ID                                       : 6
  90. Format                                   : PGS
  91. Muxing mode                              : zlib
  92. Codec ID                                 : S_HDMV/PGS
  93. Codec ID/Info                            : Picture based subtitle format used on BDs/HD-DVDs
  94. Duration                                 : 1 h 47 min
  95. Bit rate                                 : 33.1 kb/s
  96. Count of elements                        : 3472
  97. Stream size                              : 25.4 MiB (0%)
  98. Title                                    : Chinese
  99. Language                                 : Chinese
  100. Default                                  : No
  101. Forced                                   : No
  102. Text #5
  103. ID                                       : 7
  104. Format                                   : PGS
  105. Muxing mode                              : zlib
  106. Codec ID                                 : S_HDMV/PGS
  107. Codec ID/Info                            : Picture based subtitle format used on BDs/HD-DVDs
  108. Duration                                 : 1 h 48 min
  109. Bit rate                                 : 37.7 kb/s
  110. Count of elements                        : 3528
  111. Stream size                              : 29.1 MiB (0%)
  112. Title                                    : French
  113. Language                                 : French
  114. Default                                  : No
  115. Forced                                   : No
  116. Text #6
  117. ID                                       : 8
  118. Format                                   : PGS
  119. Muxing mode                              : zlib
  120. Codec ID                                 : S_HDMV/PGS
  121. Codec ID/Info                            : Picture based subtitle format used on BDs/HD-DVDs
  122. Duration                                 : 1 h 47 min
  123. Bit rate                                 : 44.3 kb/s
  124. Count of elements                        : 3652
  125. Stream size                              : 34.1 MiB (0%)
  126. Title                                    : Indonesian
  127. Language                                 : Indonesian
  128. Default                                  : No
  129. Forced                                   : No
  130. Text #7
  131. ID                                       : 9
  132. Format                                   : PGS
  133. Muxing mode                              : zlib
  134. Codec ID                                 : S_HDMV/PGS
  135. Codec ID/Info                            : Picture based subtitle format used on BDs/HD-DVDs
  136. Duration                                 : 1 h 47 min
  137. Bit rate                                 : 34.4 kb/s
  138. Count of elements                        : 3820
  139. Stream size                              : 26.5 MiB (0%)
  140. Title                                    : Korean
  141. Language                                 : Korean
  142. Default                                  : No
  143. Forced                                   : No
  144. Text #8
  145. ID                                       : 10
  146. Format                                   : PGS
  147. Muxing mode                              : zlib
  148. Codec ID                                 : S_HDMV/PGS
  149. Codec ID/Info                            : Picture based subtitle format used on BDs/HD-DVDs
  150. Duration                                 : 1 h 48 min
  151. Bit rate                                 : 39.8 kb/s
  152. Count of elements                        : 3666
  153. Stream size                              : 30.8 MiB (0%)
  154. Title                                    : Portuguese
  155. Language                                 : Portuguese
  156. Default                                  : No
  157. Forced                                   : No
  158. Text #9
  159. ID                                       : 11
  160. Format                                   : PGS
  161. Muxing mode                              : zlib
  162. Codec ID                                 : S_HDMV/PGS
  163. Codec ID/Info                            : Picture based subtitle format used on BDs/HD-DVDs
  164. Duration                                 : 1 h 47 min
  165. Bit rate                                 : 35.6 kb/s
  166. Count of elements                        : 3382
  167. Stream size                              : 27.4 MiB (0%)
  168. Title                                    : Spanish
  169. Language                                 : Spanish
  170. Default                                  : No
  171. Forced                                   : No
  172. Text #10
  173. ID                                       : 12
  174. Format                                   : PGS
  175. Muxing mode                              : zlib
  176. Codec ID                                 : S_HDMV/PGS
  177. Codec ID/Info                            : Picture based subtitle format used on BDs/HD-DVDs
  178. Duration                                 : 1 h 47 min
  179. Bit rate                                 : 43.5 kb/s
  180. Count of elements                        : 3662
  181. Stream size                              : 33.5 MiB (0%)
  182. Title                                    : Thai
  183. Language                                 : Thai
  184. Default                                  : No
  185. Forced                                   : No
  186. Menu
  187. 00:00:00.000                             : en:Chapter 01
  188. 00:07:07.552                             : en:Chapter 02
  189. 00:13:49.787                             : en:Chapter 03
  190. 00:18:34.864                             : en:Chapter 04
  191. 00:26:44.853                             : en:Chapter 05
  192. 00:33:29.674                             : en:Chapter 06
  193. 00:40:14.996                             : en:Chapter 07
  194. 00:44:20.366                             : en:Chapter 08
  195. 00:50:51.674                             : en:Chapter 09
  196. 00:55:13.936                             : en:Chapter 10
  197. 01:01:00.866                             : en:Chapter 11
  198. 01:07:02.769                             : en:Chapter 12
  199. 01:12:45.570                             : en:Chapter 13
  200. 01:19:52.246                             : en:Chapter 14
  201. 01:26:13.085                             : en:Chapter 15
  202. 01:33:38.446                             : en:Chapter 16




此处一般会放置磁力链或种子下载链接,不过此链接需要注册会员才能看到,点击“立即注册”
磁力链下载【下载链接仅对注册会员开放,登陆后可见】

BT9527电影天堂 1、BT9527电影天堂提供的BT文件均来源于互联网抓取,只供网友学习交流、技术提升使用。
2、我们遵守BitTorrent点对点协议原则,任何版权问题请联系原资源发布商,我们不处理任何版权纠纷,谢谢!如有争议请联系邮箱:BT9527#hotmail.com(#换成@)
3、如果您发现某页面或地址有错误,请联系站长邮箱BT9527#hotmail.com(#换成@),我们会尽快处理。您的热心是对BT9527电影天堂最大的支持。
4、本站建议去正规影院观看电影以支持电影行业发展。
最新回复 (0)

你可以在 登录 or 注册 后,对此帖发表评论!

返回
发新帖