倒计时[中文字幕].Countdown.2011.KOREAN.1080p.WEBRip.AAC2.0.x264-NOGRP 3.12GB

版主小s 16天前 226

 倒计时[中文字幕].Countdown.2011.KOREAN.1080p.WEBRip.AAC2.0.x264-NOGRP 3.12GB

◎译  名 倒计时 / 倒数 / Countdown
◎片  名 ?????
◎年  代 2011
◎产  地 韩国
◎类  别 剧情 / 动作
◎语  言 韩语
◎上映日期 2011-09-29(韩国)
◎IMDb链接 https://www.imdb.com/title/tt1814665/
◎豆瓣评分 6.2/10 (1430人评价)
◎豆瓣链接 https://movie.douban.com/subject/5908475/
◎片  长 120分钟
◎导  演 许宗昊 Jong-ho Huh (id:1354053)
◎编  剧 许宗昊 Jong-ho Huh (id:1354053)
◎演  员 郑在泳 Jae-yeong Jeong (id:1041961)
       全度妍 Do-yeon Jeon (id:1067813)
       李璟荣 Kyeong-yeong Lee (id:1039491)
       郑满植 Man-shik Jeong (id:1327294)
       金东旭 Dong-wook Kim (id:1316185)
       裴晟祐 Sung-Woo Bae (id:1350654)
       金光奎 Kwang-gyu Kim (id:1317057)
       吴光禄 Kwang-rok Oh (id:1203325)
       吴万石 Man-seok Oh (id:1314529)
       金正碧 Jung-pal Kim (id:1380175)
       金江日 Kang-il Kim (id:1395137)
       金俊元 Jun-won Kim (id:1390363)
       崔钟律 Jong-ryeol Choi (id:1395341)
       权成国 Seong-gook Kwon (id:1366522)
       徐东锡 Seo Dong-seok (id:1385929)
       郑惠先 Hye-sun Jung (id:1399988)
       金钟求 Kim Jong-goo (id:1379540)
       金哲秀 Cheol-Soo Kim (id:1425666)
       赵诗內 Si-nae Jo (id:1429758)
       金在华 Jae-hwa Kim (id:1339671)
       吴代焕 Oh Dae-hwan (id:1376705)
       安秀浩 Soo-ho Ahn (id:1437477)
       魏智雄 Ji-woong Wi (id:1455861)
       吴贞媛 Jeong-won Oh (id:1456479)
       朴惠珍 Hye-jin Park (id:1456991)
       张领圭 Young-gyu Jang (id:1329974)
       姜其永 Dalpalan (id:1403066)
       金泰庆 Tae-kyung Kim (id:1353561)
       权成国 Seong-gook Kwon (id:1366522)

◎简  介
  泰建浩(郑在泳 饰)是一名职业讨债人,痛苦的过去令他的个性变得异常冷酷,为了完成工作几乎可以说是不择手段。某日,医生诊断泰建浩患上了肝癌,时日无多,唯一能够保命的方法,就是在十日之内接受肝脏移植手术。                                    
                                泰建浩锁定了名为车夏媛(全度妍 饰)的女子,准确的说是锁定了她的肝脏,然而,车夏媛此时正因为欺诈的罪名被关在铁窗之后。泰建浩找到了车夏媛,后者同意移植肝脏,但泰建浩必须帮她找到陷害她入狱的师傅赵明植(李庆荣 饰),她的脑袋里只有报仇这一个念头。并非善男信女的两人仅凭利益结成了奇怪的搭档,却滋生出了一段奇妙的感情。

  1. Video
  2. ID                                       : 1
  3. Format                                   : AVC
  4. Format/Info                              : Advanced Video Codec
  5. Format profile                           : High@L4.1
  6. Format settings                          : CABAC / 1 Ref Frames
  7. Format settings, CABAC                   : Yes
  8. Format settings, Reference frames        : 1 frame
  9. Format settings, GOP                     : M=1, N=60
  10. Codec ID                                 : V_MPEG4/ISO/AVC
  11. Duration                                 : 1 h 59 min
  12. Bit rate mode                            : Constant
  13. Bit rate                                 : 3 606 kb/s
  14. Nominal bit rate                         : 4 000 kb/s
  15. Width                                    : 1 920 pixels
  16. Height                                   : 1 080 pixels
  17. Display aspect ratio                     : 16:9
  18. Frame rate mode                          : Constant
  19. Frame rate                               : 29.970 (30000/1001/53354) FPS
  20. Color space                              : YUV
  21. Chroma subsampling                       : 4:2:0
  22. Bit depth                                : 8 bits
  23. Scan type                                : Progressive
  24. Bits/(Pixel*Frame)                       : 0.058
  25. Stream size                              : 3.01 GiB (97%)
  26. Default                                  : Yes
  27. Forced                                   : No

  28. Audio
  29. ID                                       : 2
  30. Format                                   : AAC LC
  31. Format/Info                              : Advanced Audio Codec Low Complexity
  32. Codec ID                                 : A_AAC-2
  33. Duration                                 : 1 h 59 min
  34. Bit rate                                 : 125 kb/s
  35. Channel(s)                               : 2 channels
  36. Channel layout                           : L R
  37. Sampling rate                            : 48.0 kHz
  38. Frame rate                               : 46.875 FPS (1024 SPF)
  39. Compression mode                         : Lossy
  40. Stream size                              : 107 MiB (3%)
  41. Language                                 : Korean
  42. Default                                  : Yes
  43. Forced                                   : No

  44. Text #1
  45. ID                                       : 3
  46. Format                                   : UTF-8
  47. Codec ID                                 : S_TEXT/UTF8
  48. Codec ID/Info                            : UTF-8 Plain Text
  49. Duration                                 : 1 h 53 min
  50. Bit rate                                 : 30 b/s
  51. Count of elements                        : 961
  52. Stream size                              : 25.1 KiB (0%)
  53. Language                                 : English
  54. Default                                  : Yes
  55. Forced                                   : No

  56. Text #2
  57. ID                                       : 4
  58. Format                                   : UTF-8
  59. Codec ID                                 : S_TEXT/UTF8
  60. Codec ID/Info                            : UTF-8 Plain Text
  61. Duration                                 : 1 h 52 min
  62. Bit rate                                 : 28 b/s
  63. Count of elements                        : 1021
  64. Stream size                              : 23.8 KiB (0%)
  65. Title                                    : Traditional (SDH)
  66. Language                                 : Chinese
  67. Default                                  : No
  68. Forced                                   : No



此处一般会放置磁力链或种子下载链接,不过此链接需要注册会员才能看到,点击“立即注册”
磁力链下载【下载链接仅对注册会员开放,登陆后可见】

BT9527电影天堂 1、BT9527电影天堂提供的BT文件均来源于互联网抓取,只供网友学习交流、技术提升使用。
2、我们遵守BitTorrent点对点协议原则,任何版权问题请联系原资源发布商,我们不处理任何版权纠纷,谢谢!如有争议请联系邮箱:BT9527#hotmail.com(#换成@)
3、如果您发现某页面或地址有错误,请联系站长邮箱BT9527#hotmail.com(#换成@),我们会尽快处理。您的热心是对BT9527电影天堂最大的支持。
4、本站建议去正规影院观看电影以支持电影行业发展。
最新回复 (0)

你可以在 登录 or 注册 后,对此帖发表评论!

返回
发新帖