欺凌游戏[中文字幕].X.Game.2010.JAPANESE.1080p.WEBRip.AAC2.0.x264-NOGRP 4.68GB

版主小s 20天前 586

✔资源类型:WEB-1080P   ✔电影年份:2010   ✔电影地区:日本   ✔电影分类:恐怖



◎译  名 欺凌游戏 / X Game
◎片  名 ×ゲーム
◎年  代 2010
◎产  地 日本
◎类  别 恐怖
◎语  言 日语
◎上映日期 2010-09-18
◎IMDb链接 https://www.imdb.com/title/tt1686330/
◎豆瓣评分 5.3/10 (416人评价)
◎豆瓣链接 https://movie.douban.com/subject/4918556/
◎编  剧 山田悠介 Y?suke Yamada (id:1343101)
◎演  员 荒木宏文 Hirofumi Araki (id:1275497)
       菊地彩香 Ayaka Kikuchi (id:1315878)
       仲川遥香 Haruka Nakagawa (id:1314224)
       鹤见辰吾 Shingo Tsurumi (id:1017055)

◎简  介
  近一段时间,社会上接连出现自杀事件,坊间传闻这些生前曾欺负过他人的死者均死于某个专门惩罚恶者的秘密结社。在此期间,明神理香子(菊地あやか 饰)和小久保英明(荒木宏文 饰)的小学老师森野于同窗会后不久自杀身亡。之后的某天,他们受到一张充满虐待气息的DVD,片中一名黑一女子的形象让英明将之与森野老师的事件联系在一起,继而想到小学时代曾饱受欺负的女孩芜木毬子。在一个不祥的黑夜,英明、理香子、新庄刚(千代将太 饰)、吉池哲也(加藤翔 饰)、小泉智绘(仲川遥香 饰)等旧知被抓进一个封闭的场所,他们将被迫参加一场充满血腥的欺凌游戏……                                    
                                本片根据山田悠介的同名原作改编。

  1. Video
  2. ID                                       : 1
  3. Format                                   : AVC
  4. Format/Info                              : Advanced Video Codec
  5. Format profile                           : High@L5
  6. Format settings                          : CABAC / 5 Ref Frames
  7. Format settings, CABAC                   : Yes
  8. Format settings, Reference frames        : 5 frames
  9. Codec ID                                 : V_MPEG4/ISO/AVC
  10. Duration                                 : 1 h 53 min
  11. Bit rate mode                            : Constant
  12. Bit rate                                 : 6 000 kb/s
  13. Width                                    : 1 920 pixels
  14. Height                                   : 1 080 pixels
  15. Display aspect ratio                     : 16:9
  16. Frame rate mode                          : Constant
  17. Frame rate                               : 25.000 FPS
  18. Color space                              : YUV
  19. Chroma subsampling                       : 4:2:0
  20. Bit depth                                : 8 bits
  21. Scan type                                : Progressive
  22. Bits/(Pixel*Frame)                       : 0.116
  23. Stream size                              : 4.62 GiB (99%)
  24. Default                                  : Yes
  25. Forced                                   : No
  26. Color range                              : Limited
  27. Color primaries                          : BT.709
  28. Transfer characteristics                 : BT.709
  29. Matrix coefficients                      : BT.709

  30. Audio
  31. ID                                       : 2
  32. Format                                   : AAC LC
  33. Format/Info                              : Advanced Audio Codec Low Complexity
  34. Codec ID                                 : A_AAC-2
  35. Duration                                 : 1 h 53 min
  36. Bit rate                                 : 64.0 kb/s
  37. Channel(s)                               : 2 channels
  38. Channel layout                           : L R
  39. Sampling rate                            : 48.0 kHz
  40. Frame rate                               : 46.875 FPS (1024 SPF)
  41. Compression mode                         : Lossy
  42. Stream size                              : 52.2 MiB (1%)
  43. Language                                 : Japanese
  44. Default                                  : Yes
  45. Forced                                   : No

  46. Text #1
  47. ID                                       : 3
  48. Format                                   : UTF-8
  49. Codec ID                                 : S_TEXT/UTF8
  50. Codec ID/Info                            : UTF-8 Plain Text
  51. Duration                                 : 1 h 48 min
  52. Bit rate                                 : 28 b/s
  53. Count of elements                        : 886
  54. Stream size                              : 22.5 KiB (0%)
  55. Language                                 : Chinese
  56. Default                                  : No
  57. Forced                                   : No

  58. Text #2
  59. ID                                       : 4
  60. Format                                   : UTF-8
  61. Codec ID                                 : S_TEXT/UTF8
  62. Codec ID/Info                            : UTF-8 Plain Text
  63. Duration                                 : 1 h 49 min
  64. Bit rate                                 : 33 b/s
  65. Count of elements                        : 999
  66. Stream size                              : 26.5 KiB (0%)
  67. Language                                 : English
  68. Default                                  : Yes
  69. Forced                                   : No

  70. Text #3
  71. ID                                       : 5
  72. Format                                   : UTF-8
  73. Codec ID                                 : S_TEXT/UTF8
  74. Codec ID/Info                            : UTF-8 Plain Text
  75. Duration                                 : 1 h 49 min
  76. Bit rate                                 : 35 b/s
  77. Count of elements                        : 1014
  78. Stream size                              : 28.7 KiB (0%)
  79. Language                                 : Malay
  80. Default                                  : No
  81. Forced                                   : No







此处一般会放置磁力链或种子下载链接,不过此链接需要注册会员才能看到,点击“立即注册”
磁力链下载【下载链接仅对注册会员开放,登陆后可见】

BT9527电影天堂 1、BT9527电影天堂提供的BT文件均来源于互联网抓取,只供网友学习交流、技术提升使用。
2、我们遵守BitTorrent点对点协议原则,任何版权问题请联系原资源发布商,我们不处理任何版权纠纷,谢谢!如有争议请联系邮箱:BT9527#hotmail.com(#换成@)
3、如果您发现某页面或地址有错误,请联系站长邮箱BT9527#hotmail.com(#换成@),我们会尽快处理。您的热心是对BT9527电影天堂最大的支持。
4、本站建议去正规影院观看电影以支持电影行业发展。
最新回复 (1)

你可以在 登录 or 注册 后,对此帖发表评论!

返回
发新帖