绝地防线[国语配音/中文字幕].The.Fearless.Fightbrs.2022.1080p.WEB-DL.H265.AAC-CTRLWEB 1.68GB

版主小s 20天前 306

✔资源类型:WEB-1080P   ✔电影年份:2022   ✔电影地区:大陆   ✔电影分类:动作

◎译  名 绝地防线
◎年  代 2022
◎产  地 中国大陆
◎类  别 动作 / 战争
◎语  言 汉语普通话
◎上映日期 2022-06-12(中国大陆网络)
◎IMDb链接 https://www.imdb.com/title//
◎豆瓣链接 https://movie.douban.com/subject/35295132/
◎导  演 王利兴 Lixing Wang (id:1341350)
       李小名 listening (id:1434148)
◎编  剧 崔岩  (id:1426711)
◎演  员 王挺 Ting Wang (id:1314471)
       王韬 Tao Wang (id:1398762)
       矢野浩二 K?ji Yano (id:1314964)
       杭程宇 Chengyu Hang (id:1388458)
       张子璇 Zixuan Zhang (id:1359753)
       侯祥 Xiang Hou (id:1316886)

◎简  介
  影片故事原型取材于苏村阻击战。1941年1月,八路军第115师教导3旅特务3营接到指令,为掩护鲁西军区行署机关的安全转移,将在苏村阻击数倍于己的日本精装部队。最终,包括营长钟铭新在内的126名战士壮烈牺牲,为军区机关和群众的安全转移赢得了宝贵时间,在鲁西抗战史上留下了色彩浓重的一笔。
  1. ##### MediaInfo ######
  2. General
  3. Complete name                            : The.Fearless.Fightbrs.2022.1080p.WEB-DL.H265.AAC-CTRLWEB.mp4
  4. Format                                   : MPEG-4
  5. Format profile                           : Base Media
  6. Codec ID                                 : isom (isom/iso2/mp41)
  7. File size                                : 1.68 GiB
  8. Duration                                 : 1 h 31 min
  9. Overall bit rate                         : 2 632 kb/s
  10. Recorded date                            : 2022-06-13T12:00:26.4223701+08:00
  11. Writing application                      : Lavf58.32.104
  12. Video
  13. ID                                       : 1
  14. Format                                   : HEVC
  15. Format/Info                              : High Efficiency Video Coding
  16. Format profile                           : Main@L4@Main
  17. Codec ID                                 : hev1
  18. Codec ID/Info                            : High Efficiency Video Coding
  19. Duration                                 : 1 h 31 min
  20. Bit rate                                 : 2 436 kb/s
  21. Width                                    : 1 920 pixels
  22. Height                                   : 816 pixels
  23. Display aspect ratio                     : 2.35:1
  24. Frame rate mode                          : Constant
  25. Frame rate                               : 24.000 FPS
  26. Color space                              : YUV
  27. Chroma subsampling                       : 4:2:0
  28. Bit depth                                : 8 bits
  29. Bits/(Pixel*Frame)                       : 0.065
  30. Stream size                              : 1.56 GiB (93%)
  31. Codec configuration box                  : hvcC
  32. Audio
  33. ID                                       : 2
  34. Format                                   : AAC LC
  35. Format/Info                              : Advanced Audio Codec Low Complexity
  36. Codec ID                                 : mp4a-40-2
  37. Duration                                 : 1 h 31 min
  38. Bit rate mode                            : Constant
  39. Bit rate                                 : 192 kb/s
  40. Channel(s)                               : 2 channels
  41. Channel layout                           : L R
  42. Sampling rate                            : 44.1 kHz
  43. Frame rate                               : 43.066 FPS (1024 SPF)
  44. Compression mode                         : Lossy
  45. Stream size                              : 124 MiB (7%)
  46. Default                                  : Yes
  47. Alternate group                          : 1





此处一般会放置磁力链或种子下载链接,不过此链接需要注册会员才能看到,点击“立即注册”
磁力链下载【下载链接仅对注册会员开放,登陆后可见】
BT9527电影天堂 1、BT9527电影天堂提供的BT文件均来源于互联网抓取,只供网友学习交流、技术提升使用。
2、我们遵守BitTorrent点对点协议原则,任何版权问题请联系原资源发布商,我们不处理任何版权纠纷,谢谢!如有争议请联系邮箱:BT9527#hotmail.com(#换成@)
3、如果您发现某页面或地址有错误,请联系站长邮箱BT9527#hotmail.com(#换成@),我们会尽快处理。您的热心是对BT9527电影天堂最大的支持。
4、本站建议去正规影院观看电影以支持电影行业发展。
最新回复 (0)

你可以在 登录 or 注册 后,对此帖发表评论!

返回
发新帖