林肯律师[中文字幕].The.Lincoln.Lawyer.2011.2160p.HDR.UHD.BluRay.DD5.1.x265-10bit-ENTHD 12.35GB

版主小s 14天前 114

✔资源类型:BD-4K   ✔电影年份:2011   ✔电影地区:欧美   ✔电影分类:剧情

◎译  名 林肯律师 / 依法犯法(港) / 下流正义(台)
◎片  名 The Lincoln Lawyer
◎年  代 2011
◎产  地 美国
◎类  别 剧情 / 惊悚 / 犯罪
◎语  言 英语
◎上映日期 2012-08-15(中国大陆) / 2011-03-18(美国)
◎IMDb链接 https://www.imdb.com/title/tt1189340/
◎豆瓣评分 7.9/10 (41812人评价)
◎豆瓣链接 https://movie.douban.com/subject/2996790/
◎片  长 118分钟
◎导  演 布拉德·福尔曼 Brad Furman (id:1318098)
◎编  剧 约翰·罗曼罗 John Romano (id:1028431)
       麦可·康纳利 Michael Connelly (id:1322576)
◎演  员 马修·麦康纳 Matthew McConaughey (id:1040511)
       玛丽莎·托梅 Marisa Tomei (id:1047974)
       瑞恩·菲利普 Ryan Phillippe (id:1040999)
       威廉姆·H·梅西 William H. Macy (id:1031892)
       约翰·雷吉扎莫 John Leguizamo (id:1010561)
       迈克尔·佩纳 Michael Pe?a (id:1131634)
       凯瑟琳·莫宁 Katherine Moennig (id:1010485)
       布莱恩·科兰斯顿 Bryan Cranston (id:1031807)
       谢伊·惠格姆 Shea Whigham (id:1165173)
       玛格丽塔·列维耶娃 Margarita Levieva (id:1004619)
       鲍勃·冈顿 Bob Gunton (id:1041179)
       弗兰西丝·费舍 Frances Fisher (id:1048158)
       雅莉 德 赖恩 Yari De Leon (id:1315579)
       劳伦斯·梅森 Laurence Mason (id:1315566)
       克里夫·马丁内斯 Cliff Martinez (id:1005381)
       卢卡斯·艾特林 Lukas Ettlin (id:1359151)
       埃林·贝纳赫 Erin Benach (id:1408698)
       史蒂文·莫罗 Steven Morrow (id:1369618)

◎简  介
  故事讲述洛杉矶刑事辩护律师米奇·豪勒(马修·麦康纳 Matthew McConaughey 饰),绰号“林肯律师”,经手的都是些处于社会底层的客户。他善恶分明、正直守信,并非贪财小人。然而这一次,豪勒的辩护对像是年轻富有的房地产开发商路易斯-罗莱特(瑞恩·菲利普 Rya n Phillippe 饰)。罗莱特受到的指控是殴打并企图强奸应招女郎瑞琪(玛格丽塔-莱维瓦 Margarita Levieva 饰),但罗莱特声称自己是无辜的,有人栽赃陷害他。罗莱特的母亲愿意不惜重金证明自己心爱儿子的清白。为了解案情的细节,豪勒及其私人调查员对此案进行了调查。他们最初获得的证据证明罗莱特似乎确实无辜,这个案子能够轻而易举地打赢,豪勒也能够轻松地获得一笔高额的律师费。然而,一个偶然的机会使豪勒发现,此案与他曾经接手的另一桩强奸杀人案有诸多相似之处……
  1. ##### MediaInfo ######
  2. General
  3. Unique ID                                : 259077914559729866205477126538214641445 (0xC2E897633CDE51674520907FB4860F25)
  4. Complete name                            : The.Lincoln.Lawyer.2011.2160p.HDR.UHD.BluRay.DD5.1.x265-10bit-ENTHD.mkv
  5. Format                                   : Matroska
  6. Format version                           : Version 4
  7. File size                                : 12.3 GiB
  8. Duration                                 : 1 h 58 min
  9. Overall bit rate                         : 14.9 Mb/s
  10. Movie name                               : The Lincoln Lawyer 2011 2160p HDR UHD BluRay DD5.1 x265-10bit-HDS
  11. Encoded date                             : UTC 2022-06-13 10:30:19
  12. Writing application                      : mkvmerge v67.0.0 ('Under Stars') 64-bit
  13. Writing library                          : libebml v1.4.2 + libmatroska v1.6.4
  14. Video
  15. ID                                       : 1
  16. Format                                   : HEVC
  17. Format/Info                              : High Efficiency Video Coding
  18. Format profile                           : Main 10@L5.1@High
  19. HDR format                               : SMPTE ST 2086, HDR10 compatible
  20. Codec ID                                 : V_MPEGH/ISO/HEVC
  21. Duration                                 : 1 h 58 min
  22. Bit rate                                 : 14.2 Mb/s
  23. Width                                    : 3 840 pixels
  24. Height                                   : 1 632 pixels
  25. Display aspect ratio                     : 2.35:1
  26. Frame rate mode                          : Constant
  27. Frame rate                               : 23.976 (24000/1001/53354) FPS
  28. Color space                              : YUV
  29. Chroma subsampling                       : 4:2:0
  30. Bit depth                                : 10 bits
  31. Bits/(Pixel*Frame)                       : 0.095
  32. Stream size                              : 11.8 GiB (95%)
  33. Title                                    : @HDSky
  34. Writing library                          : x265 - H.265/HEVC codec
  35. Default                                  : Yes
  36. Forced                                   : No
  37. Color range                              : Limited
  38. Color primaries                          : BT.2020
  39. Transfer characteristics                 : PQ
  40. Matrix coefficients                      : BT.2020 non-constant
  41. Mastering display color primaries        : Display P3
  42. Mastering display luminance              : min: 0.0000 cd/m2, max: 1000 cd/m2
  43. Maximum Content Light Level              : 967 cd/m2
  44. Maximum Frame-Average Light Level        : 358 cd/m2
  45. Audio
  46. ID                                       : 2
  47. Format                                   : AC-3
  48. Format/Info                              : Audio Coding 3
  49. Commercial name                          : Dolby Digital
  50. Codec ID                                 : A_AC3
  51. Duration                                 : 1 h 58 min
  52. Bit rate mode                            : Constant
  53. Bit rate                                 : 640 kb/s
  54. Channel(s)                               : 6 channels
  55. Channel layout                           : L R C LFE Ls Rs
  56. Sampling rate                            : 48.0 kHz
  57. Frame rate                               : 31.250 FPS (1536 SPF)
  58. Compression mode                         : Lossy
  59. Stream size                              : 542 MiB (4%)
  60. Title                                    : English
  61. Language                                 : English
  62. Service kind                             : Complete Main
  63. Default                                  : Yes
  64. Forced                                   : No
  65. Text #1
  66. ID                                       : 3
  67. Format                                   : PGS
  68. Muxing mode                              : zlib
  69. Codec ID                                 : S_HDMV/PGS
  70. Codec ID/Info                            : Picture based subtitle format used on BDs/HD-DVDs
  71. Duration                                 : 1 h 51 min
  72. Bit rate                                 : 34.0 kb/s
  73. Count of elements                        : 3634
  74. Stream size                              : 27.2 MiB (0%)
  75. Title                                    : CHS
  76. Language                                 : Chinese
  77. Default                                  : Yes
  78. Forced                                   : No
  79. Text #2
  80. ID                                       : 4
  81. Format                                   : PGS
  82. Muxing mode                              : zlib
  83. Codec ID                                 : S_HDMV/PGS
  84. Codec ID/Info                            : Picture based subtitle format used on BDs/HD-DVDs
  85. Duration                                 : 1 h 51 min
  86. Bit rate                                 : 35.5 kb/s
  87. Count of elements                        : 3634
  88. Stream size                              : 28.4 MiB (0%)
  89. Title                                    : CHT
  90. Language                                 : Chinese
  91. Default                                  : Yes
  92. Forced                                   : No
  93. Menu
  94. 00:00:00.000                             : en:第 01 章
  95. 00:05:06.223                             : en:第 02 章
  96. 00:16:49.258                             : en:第 03 章
  97. 00:20:05.413                             : en:第 04 章
  98. 00:30:21.194                             : en:第 05 章
  99. 00:38:22.550                             : en:第 06 章
  100. 00:48:24.360                             : en:第 07 章
  101. 00:55:06.428                             : en:第 08 章
  102. 00:59:09.463                             : en:第 09 章
  103. 01:03:15.834                             : en:第 10 章
  104. 01:09:03.139                             : en:第 11 章
  105. 01:15:28.065                             : en:第 12 章
  106. 01:23:20.662                             : en:第 13 章
  107. 01:29:43.253                             : en:第 14 章
  108. 01:37:33.347                             : en:第 15 章
  109. 01:49:59.551                             : en:第 16 章





此处一般会放置磁力链或种子下载链接,不过此链接需要注册会员才能看到,点击“立即注册”
磁力链下载【下载链接仅对注册会员开放,登陆后可见】
BT9527电影天堂 1、BT9527电影天堂提供的BT文件均来源于互联网抓取,只供网友学习交流、技术提升使用。
2、我们遵守BitTorrent点对点协议原则,任何版权问题请联系原资源发布商,我们不处理任何版权纠纷,谢谢!如有争议请联系邮箱:BT9527#hotmail.com(#换成@)
3、如果您发现某页面或地址有错误,请联系站长邮箱BT9527#hotmail.com(#换成@),我们会尽快处理。您的热心是对BT9527电影天堂最大的支持。
4、本站建议去正规影院观看电影以支持电影行业发展。
最新回复 (0)

你可以在 登录 or 注册 后,对此帖发表评论!

返回
发新帖