和平树[简繁英字幕].Trees.of.Peace.2022.1080p.NF.WEB-DL.DDP.5.1.H.264-CTRLWEB 5.27GB

版主小s 3月前 244

✔资源类型:WEB-1080P   ✔电影年份:2022   ✔电影地区:欧美   ✔电影分类:剧情

◎译  名 和平树
◎片  名 Trees of Peace
◎年  代 2022
◎产  地 美国
◎类  别 剧情
◎上映日期 2022-06-10(美国)
◎IMDb链接 https://www.imdb.com/title/tt11316680/
◎豆瓣链接 https://movie.douban.com/subject/35332917/

◎简  介
  在卢旺达大屠杀期间,四名背景各异的女子身处困境,在奔波躲藏之间建立了牢不可破的姐妹情谊。根据真实事件改编。
  1. ##### MediaInfo ######
  2. General
  3. Unique ID                                : 268696160743109811564742611724632663232 (0xCA24FF897DD45C9ABA6A7B5DC6F524C0)
  4. Complete name                            : Trees.of.Peace.2022.1080p.NF.WEB-DL.DDP.5.1.H.264-CTRLWEB.mkv
  5. Format                                   : Matroska
  6. Format version                           : Version 4
  7. File size                                : 5.27 GiB
  8. Duration                                 : 1 h 38 min
  9. Overall bit rate mode                    : Variable
  10. Overall bit rate                         : 7 693 kb/s
  11. Encoded date                             : UTC 2022-06-13 09:59:43
  12. Writing application                      : mkvmerge v68.0.0 ('The Curtain') 64-bit
  13. Writing library                          : libebml v1.4.2 + libmatroska v1.6.4
  14. Video
  15. ID                                       : 1
  16. Format                                   : AVC
  17. Format/Info                              : Advanced Video Codec
  18. Format profile                           : High@L4
  19. Format settings                          : CABAC / 4 Ref Frames
  20. Format settings, CABAC                   : Yes
  21. Format settings, Reference frames        : 4 frames
  22. Codec ID                                 : V_MPEG4/ISO/AVC
  23. Duration                                 : 1 h 38 min
  24. Bit rate mode                            : Variable
  25. Bit rate                                 : 7 049 kb/s
  26. Maximum bit rate                         : 20.0 Mb/s
  27. Width                                    : 1 920 pixels
  28. Height                                   : 1 080 pixels
  29. Display aspect ratio                     : 16:9
  30. Frame rate mode                          : Constant
  31. Frame rate                               : 23.976 (24000/1001/53354) FPS
  32. Color space                              : YUV
  33. Chroma subsampling                       : 4:2:0
  34. Bit depth                                : 8 bits
  35. Scan type                                : Progressive
  36. Bits/(Pixel*Frame)                       : 0.142
  37. Stream size                              : 4.83 GiB (92%)
  38. Writing library                          : x264 core 148 r2727 7d026e8
  39. Encoding settings                        : cabac=1 / ref=4 / deblock=1:0:0 / analyse=0x3:0x111 / me=umh / subme=10 / psy=1 / psy_rd=1.00:0.00 / mixed_ref=1 / me_range=120 / chroma_me=1 / trellis=2 / 8x8dct=1 / cqm=0 / deadzone=21,11 / fast_pskip=1 / chroma_qp_offset=-2 / threads=8 / lookahead_threads=2 / sliced_threads=0 / nr=0 / decimate=1 / interlaced=0 / NTMzNTQ= / bluray_compat=0 / stitchable=1 / constrained_intra=0 / bframes=16 / b_pyramid=2 / b_adapt=2 / b_bias=0 / direct=3 / weightb=1 / open_gop=0 / weightp=2 / keyint=240 / keyint_min=121 / scenecut=0 / intra_refresh=0 / rc_lookahead=240 / rc=crf / mbtree=1 / crf=17.0 / qcomp=0.50 / qpmin=6 / qpmax=51 / qpstep=4 / vbv_maxrate=20000 / vbv_bufsize=25000 / crf_max=0.0 / nal_hrd=vbr / filler=0 / NTMzNTQ=LmsMAP37EqsCpk / ip_ratio=1.40 / aq=1:0.80
  40. Language                                 : English
  41. Default                                  : Yes
  42. Forced                                   : No
  43. Audio
  44. ID                                       : 2
  45. Format                                   : E-AC-3
  46. Format/Info                              : Enhanced AC-3
  47. Commercial name                          : Dolby Digital Plus
  48. Codec ID                                 : A_EAC3
  49. Duration                                 : 1 h 38 min
  50. Bit rate mode                            : Constant
  51. Bit rate                                 : 640 kb/s
  52. Channel(s)                               : 6 channels
  53. Channel layout                           : L R C LFE Ls Rs
  54. Sampling rate                            : 48.0 kHz
  55. Frame rate                               : 31.250 FPS (1536 SPF)
  56. Compression mode                         : Lossy
  57. Stream size                              : 449 MiB (8%)
  58. Language                                 : English
  59. Service kind                             : Complete Main
  60. Default                                  : Yes
  61. Forced                                   : No
  62. Text #1
  63. ID                                       : 3
  64. Format                                   : UTF-8
  65. Codec ID                                 : S_TEXT/UTF8
  66. Codec ID/Info                            : UTF-8 Plain Text
  67. Duration                                 : 1 h 21 min
  68. Bit rate                                 : 3 b/s
  69. Count of elements                        : 94
  70. Stream size                              : 1.84 KiB (0%)
  71. Title                                    : Forced
  72. Language                                 : English
  73. Default                                  : Yes
  74. Forced                                   : Yes
  75. Text #2
  76. ID                                       : 4
  77. Format                                   : UTF-8
  78. Codec ID                                 : S_TEXT/UTF8
  79. Codec ID/Info                            : UTF-8 Plain Text
  80. Duration                                 : 1 h 36 min
  81. Bit rate                                 : 59 b/s
  82. Count of elements                        : 1552
  83. Stream size                              : 42.1 KiB (0%)
  84. Title                                    : SDH
  85. Language                                 : English
  86. Default                                  : No
  87. Forced                                   : No
  88. Text #3
  89. ID                                       : 5
  90. Format                                   : UTF-8
  91. Codec ID                                 : S_TEXT/UTF8
  92. Codec ID/Info                            : UTF-8 Plain Text
  93. Duration                                 : 1 h 36 min
  94. Bit rate                                 : 46 b/s
  95. Count of elements                        : 1144
  96. Stream size                              : 33.0 KiB (0%)
  97. Title                                    : Simplified
  98. Language                                 : Chinese
  99. Default                                  : No
  100. Forced                                   : No
  101. Text #4
  102. ID                                       : 6
  103. Format                                   : UTF-8
  104. Codec ID                                 : S_TEXT/UTF8
  105. Codec ID/Info                            : UTF-8 Plain Text
  106. Duration                                 : 1 h 36 min
  107. Bit rate                                 : 43 b/s
  108. Count of elements                        : 1158
  109. Stream size                              : 30.8 KiB (0%)
  110. Title                                    : Traditional
  111. Language                                 : Chinese
  112. Default                                  : No
  113. Forced                                   : No
  114. Text #5
  115. ID                                       : 7
  116. Format                                   : UTF-8
  117. Codec ID                                 : S_TEXT/UTF8
  118. Codec ID/Info                            : UTF-8 Plain Text
  119. Duration                                 : 1 h 36 min
  120. Bit rate                                 : 70 b/s
  121. Count of elements                        : 1142
  122. Stream size                              : 49.3 KiB (0%)
  123. Language                                 : Arabic
  124. Default                                  : No
  125. Forced                                   : No
  126. Text #6
  127. ID                                       : 8
  128. Format                                   : UTF-8
  129. Codec ID                                 : S_TEXT/UTF8
  130. Codec ID/Info                            : UTF-8 Plain Text
  131. Duration                                 : 1 h 36 min
  132. Bit rate                                 : 39 b/s
  133. Count of elements                        : 1139
  134. Stream size                              : 27.7 KiB (0%)
  135. Language                                 : Czech
  136. Default                                  : No
  137. Forced                                   : No
  138. Text #7
  139. ID                                       : 9
  140. Format                                   : UTF-8
  141. Codec ID                                 : S_TEXT/UTF8
  142. Codec ID/Info                            : UTF-8 Plain Text
  143. Duration                                 : 1 h 36 min
  144. Bit rate                                 : 38 b/s
  145. Count of elements                        : 1083
  146. Stream size                              : 27.3 KiB (0%)
  147. Language                                 : Danish
  148. Default                                  : No
  149. Forced                                   : No
  150. Text #8
  151. ID                                       : 10
  152. Format                                   : UTF-8
  153. Codec ID                                 : S_TEXT/UTF8
  154. Codec ID/Info                            : UTF-8 Plain Text
  155. Duration                                 : 1 h 36 min
  156. Bit rate                                 : 39 b/s
  157. Count of elements                        : 1082
  158. Stream size                              : 27.7 KiB (0%)
  159. Language                                 : German
  160. Default                                  : No
  161. Forced                                   : No
  162. Text #9
  163. ID                                       : 11
  164. Format                                   : UTF-8
  165. Codec ID                                 : S_TEXT/UTF8
  166. Codec ID/Info                            : UTF-8 Plain Text
  167. Duration                                 : 1 h 36 min
  168. Bit rate                                 : 69 b/s
  169. Count of elements                        : 1128
  170. Stream size                              : 48.7 KiB (0%)
  171. Language                                 : Greek
  172. Default                                  : No
  173. Forced                                   : No
  174. Text #10
  175. ID                                       : 12
  176. Format                                   : UTF-8
  177. Codec ID                                 : S_TEXT/UTF8
  178. Codec ID/Info                            : UTF-8 Plain Text
  179. Duration                                 : 1 h 36 min
  180. Bit rate                                 : 61 b/s
  181. Count of elements                        : 1614
  182. Stream size                              : 43.7 KiB (0%)
  183. Title                                    : SDH
  184. Language                                 : Spanish
  185. Default                                  : No
  186. Forced                                   : No
  187. Text #11
  188. ID                                       : 13
  189. Format                                   : UTF-8
  190. Codec ID                                 : S_TEXT/UTF8
  191. Codec ID/Info                            : UTF-8 Plain Text
  192. Duration                                 : 1 h 31 min
  193. Bit rate                                 : 43 b/s
  194. Count of elements                        : 1166
  195. Stream size                              : 29.0 KiB (0%)
  196. Language                                 : Spanish
  197. Default                                  : No
  198. Forced                                   : No
  199. Text #12
  200. ID                                       : 14
  201. Format                                   : UTF-8
  202. Codec ID                                 : S_TEXT/UTF8
  203. Codec ID/Info                            : UTF-8 Plain Text
  204. Duration                                 : 1 h 36 min
  205. Bit rate                                 : 40 b/s
  206. Count of elements                        : 1127
  207. Stream size                              : 28.2 KiB (0%)
  208. Language                                 : Spanish
  209. Default                                  : No
  210. Forced                                   : No
  211. Text #13
  212. ID                                       : 15
  213. Format                                   : UTF-8
  214. Codec ID                                 : S_TEXT/UTF8
  215. Codec ID/Info                            : UTF-8 Plain Text
  216. Duration                                 : 1 h 36 min
  217. Bit rate                                 : 38 b/s
  218. Count of elements                        : 1134
  219. Stream size                              : 27.2 KiB (0%)
  220. Title                                    : Europe
  221. Language                                 : Spanish
  222. Default                                  : No
  223. Forced                                   : No
  224. Text #14
  225. ID                                       : 16
  226. Format                                   : UTF-8
  227. Codec ID                                 : S_TEXT/UTF8
  228. Codec ID/Info                            : UTF-8 Plain Text
  229. Duration                                 : 1 h 36 min
  230. Bit rate                                 : 39 b/s
  231. Count of elements                        : 893
  232. Stream size                              : 27.5 KiB (0%)
  233. Language                                 : Finnish
  234. Default                                  : No
  235. Forced                                   : No
  236. Text #15
  237. ID                                       : 17
  238. Format                                   : UTF-8
  239. Codec ID                                 : S_TEXT/UTF8
  240. Codec ID/Info                            : UTF-8 Plain Text
  241. Duration                                 : 1 h 36 min
  242. Bit rate                                 : 39 b/s
  243. Count of elements                        : 1123
  244. Stream size                              : 28.0 KiB (0%)
  245. Language                                 : French
  246. Default                                  : No
  247. Forced                                   : No
  248. Text #16
  249. ID                                       : 18
  250. Format                                   : UTF-8
  251. Codec ID                                 : S_TEXT/UTF8
  252. Codec ID/Info                            : UTF-8 Plain Text
  253. Duration                                 : 1 h 36 min
  254. Bit rate                                 : 65 b/s
  255. Count of elements                        : 1136
  256. Stream size                              : 46.2 KiB (0%)
  257. Language                                 : Hebrew
  258. Default                                  : No
  259. Forced                                   : No
  260. Text #17
  261. ID                                       : 19
  262. Format                                   : UTF-8
  263. Codec ID                                 : S_TEXT/UTF8
  264. Codec ID/Info                            : UTF-8 Plain Text
  265. Duration                                 : 1 h 36 min
  266. Bit rate                                 : 37 b/s
  267. Count of elements                        : 1116
  268. Stream size                              : 26.2 KiB (0%)
  269. Language                                 : Croatian
  270. Default                                  : No
  271. Forced                                   : No
  272. Text #18
  273. ID                                       : 20
  274. Format                                   : UTF-8
  275. Codec ID                                 : S_TEXT/UTF8
  276. Codec ID/Info                            : UTF-8 Plain Text
  277. Duration                                 : 1 h 36 min
  278. Bit rate                                 : 39 b/s
  279. Count of elements                        : 1109
  280. Stream size                              : 27.9 KiB (0%)
  281. Language                                 : Hungarian
  282. Default                                  : No
  283. Forced                                   : No
  284. Text #19
  285. ID                                       : 21
  286. Format                                   : UTF-8
  287. Codec ID                                 : S_TEXT/UTF8
  288. Codec ID/Info                            : UTF-8 Plain Text
  289. Duration                                 : 1 h 36 min
  290. Bit rate                                 : 39 b/s
  291. Count of elements                        : 1139
  292. Stream size                              : 27.9 KiB (0%)
  293. Language                                 : Indonesian
  294. Default                                  : No
  295. Forced                                   : No
  296. Text #20
  297. ID                                       : 22
  298. Format                                   : UTF-8
  299. Codec ID                                 : S_TEXT/UTF8
  300. Codec ID/Info                            : UTF-8 Plain Text
  301. Duration                                 : 1 h 36 min
  302. Bit rate                                 : 39 b/s
  303. Count of elements                        : 1072
  304. Stream size                              : 28.1 KiB (0%)
  305. Language                                 : Italian
  306. Default                                  : No
  307. Forced                                   : No
  308. Text #21
  309. ID                                       : 23
  310. Format                                   : UTF-8
  311. Codec ID                                 : S_TEXT/UTF8
  312. Codec ID/Info                            : UTF-8 Plain Text
  313. Duration                                 : 1 h 36 min
  314. Bit rate                                 : 45 b/s
  315. Count of elements                        : 1127
  316. Stream size                              : 32.3 KiB (0%)
  317. Language                                 : Japanese
  318. Default                                  : No
  319. Forced                                   : No
  320. Text #22
  321. ID                                       : 24
  322. Format                                   : UTF-8
  323. Codec ID                                 : S_TEXT/UTF8
  324. Codec ID/Info                            : UTF-8 Plain Text
  325. Duration                                 : 1 h 36 min
  326. Bit rate                                 : 50 b/s
  327. Count of elements                        : 1154
  328. Stream size                              : 35.8 KiB (0%)
  329. Language                                 : Korean
  330. Default                                  : No
  331. Forced                                   : No
  332. Text #23
  333. ID                                       : 25
  334. Format                                   : UTF-8
  335. Codec ID                                 : S_TEXT/UTF8
  336. Codec ID/Info                            : UTF-8 Plain Text
  337. Duration                                 : 1 h 36 min
  338. Bit rate                                 : 40 b/s
  339. Count of elements                        : 1124
  340. Stream size                              : 28.6 KiB (0%)
  341. Language                                 : Malay
  342. Default                                  : No
  343. Forced                                   : No
  344. Text #24
  345. ID                                       : 26
  346. Format                                   : UTF-8
  347. Codec ID                                 : S_TEXT/UTF8
  348. Codec ID/Info                            : UTF-8 Plain Text
  349. Duration                                 : 1 h 36 min
  350. Bit rate                                 : 38 b/s
  351. Count of elements                        : 884
  352. Stream size                              : 27.2 KiB (0%)
  353. Language                                 : Norwegian Bokmal
  354. Default                                  : No
  355. Forced                                   : No
  356. Text #25
  357. ID                                       : 27
  358. Format                                   : UTF-8
  359. Codec ID                                 : S_TEXT/UTF8
  360. Codec ID/Info                            : UTF-8 Plain Text
  361. Duration                                 : 1 h 31 min
  362. Bit rate                                 : 43 b/s
  363. Count of elements                        : 1028
  364. Stream size                              : 29.1 KiB (0%)
  365. Language                                 : Dutch
  366. Default                                  : No
  367. Forced                                   : No
  368. Text #26
  369. ID                                       : 28
  370. Format                                   : UTF-8
  371. Codec ID                                 : S_TEXT/UTF8
  372. Codec ID/Info                            : UTF-8 Plain Text
  373. Duration                                 : 1 h 36 min
  374. Bit rate                                 : 37 b/s
  375. Count of elements                        : 1130
  376. Stream size                              : 26.4 KiB (0%)
  377. Language                                 : Polish
  378. Default                                  : No
  379. Forced                                   : No
  380. Text #27
  381. ID                                       : 29
  382. Format                                   : UTF-8
  383. Codec ID                                 : S_TEXT/UTF8
  384. Codec ID/Info                            : UTF-8 Plain Text
  385. Duration                                 : 1 h 36 min
  386. Bit rate                                 : 40 b/s
  387. Count of elements                        : 1128
  388. Stream size                              : 28.8 KiB (0%)
  389. Language                                 : Portuguese
  390. Default                                  : No
  391. Forced                                   : No
  392. Text #28
  393. ID                                       : 30
  394. Format                                   : UTF-8
  395. Codec ID                                 : S_TEXT/UTF8
  396. Codec ID/Info                            : UTF-8 Plain Text
  397. Duration                                 : 1 h 36 min
  398. Bit rate                                 : 40 b/s
  399. Count of elements                        : 1115
  400. Stream size                              : 28.4 KiB (0%)
  401. Title                                    : Brazil
  402. Language                                 : Portuguese
  403. Default                                  : No
  404. Forced                                   : No
  405. Text #29
  406. ID                                       : 31
  407. Format                                   : UTF-8
  408. Codec ID                                 : S_TEXT/UTF8
  409. Codec ID/Info                            : UTF-8 Plain Text
  410. Duration                                 : 1 h 36 min
  411. Bit rate                                 : 43 b/s
  412. Count of elements                        : 1139
  413. Stream size                              : 30.9 KiB (0%)
  414. Language                                 : Romanian
  415. Default                                  : No
  416. Forced                                   : No
  417. Text #30
  418. ID                                       : 32
  419. Format                                   : UTF-8
  420. Codec ID                                 : S_TEXT/UTF8
  421. Codec ID/Info                            : UTF-8 Plain Text
  422. Duration                                 : 1 h 36 min
  423. Bit rate                                 : 63 b/s
  424. Count of elements                        : 1131
  425. Stream size                              : 44.8 KiB (0%)
  426. Language                                 : Russian
  427. Default                                  : No
  428. Forced                                   : No
  429. Text #31
  430. ID                                       : 33
  431. Format                                   : UTF-8
  432. Codec ID                                 : S_TEXT/UTF8
  433. Codec ID/Info                            : UTF-8 Plain Text
  434. Duration                                 : 1 h 36 min
  435. Bit rate                                 : 40 b/s
  436. Count of elements                        : 1072
  437. Stream size                              : 28.3 KiB (0%)
  438. Language                                 : Swedish
  439. Default                                  : No
  440. Forced                                   : No
  441. Text #32
  442. ID                                       : 34
  443. Format                                   : UTF-8
  444. Codec ID                                 : S_TEXT/UTF8
  445. Codec ID/Info                            : UTF-8 Plain Text
  446. Duration                                 : 1 h 36 min
  447. Bit rate                                 : 109 b/s
  448. Count of elements                        : 1142
  449. Stream size                              : 76.8 KiB (0%)
  450. Language                                 : Thai
  451. Default                                  : No
  452. Forced                                   : No
  453. Text #33
  454. ID                                       : 35
  455. Format                                   : UTF-8
  456. Codec ID                                 : S_TEXT/UTF8
  457. Codec ID/Info                            : UTF-8 Plain Text
  458. Duration                                 : 1 h 36 min
  459. Bit rate                                 : 39 b/s
  460. Count of elements                        : 1123
  461. Stream size                              : 28.0 KiB (0%)
  462. Language                                 : Turkish
  463. Default                                  : No
  464. Forced                                   : No
  465. Text #34
  466. ID                                       : 36
  467. Format                                   : UTF-8
  468. Codec ID                                 : S_TEXT/UTF8
  469. Codec ID/Info                            : UTF-8 Plain Text
  470. Duration                                 : 1 h 36 min
  471. Bit rate                                 : 61 b/s
  472. Count of elements                        : 1133
  473. Stream size                              : 43.5 KiB (0%)
  474. Language                                 : Ukrainian
  475. Default                                  : No
  476. Forced                                   : No
  477. Text #35
  478. ID                                       : 37
  479. Format                                   : UTF-8
  480. Codec ID                                 : S_TEXT/UTF8
  481. Codec ID/Info                            : UTF-8 Plain Text
  482. Duration                                 : 1 h 36 min
  483. Bit rate                                 : 58 b/s
  484. Count of elements                        : 1133
  485. Stream size                              : 40.9 KiB (0%)
  486. Language                                 : Vietnamese
  487. Default                                  : No
  488. Forced                                   : No





此处一般会放置磁力链或种子下载链接,不过此链接需要注册会员才能看到,点击“立即注册”
磁力链下载【下载链接仅对注册会员开放,登陆后可见】
BT9527电影天堂 1、BT9527电影天堂提供的BT文件均来源于互联网抓取,只供网友学习交流、技术提升使用。
2、我们遵守BitTorrent点对点协议原则,任何版权问题请联系原资源发布商,我们不处理任何版权纠纷,谢谢!如有争议请联系邮箱:BT9527#hotmail.com(#换成@)
3、如果您发现某页面或地址有错误,请联系站长邮箱BT9527#hotmail.com(#换成@),我们会尽快处理。您的热心是对BT9527电影天堂最大的支持。
4、本站建议去正规影院观看电影以支持电影行业发展。
最新回复 (0)

你可以在 登录 or 注册 后,对此帖发表评论!

返回
发新帖