疯狂大赛车[简繁英字幕].The.Great.Race.1965.BluRay.1080p.DTS-HD.MA.5.1.x265.10bit-CTRLHD 12.74GB

版主小s 17天前 112

✔资源类型:暂未分类   ✔电影年份:更 早   ✔电影地区:欧美   ✔电影分类:喜剧

◎译  名 疯狂大赛车
◎片  名 The Great Race
◎年  代 1965
◎产  地 美国
◎类  别 喜剧 / 动作 / 爱情 / 歌舞 / 家庭 / 冒险 / 运动
◎语  言 英语
◎上映日期 1965-07-01
◎IMDb链接 https://www.imdb.com/title/tt0059243/
◎豆瓣评分 6.9/10 (152人评价)
◎豆瓣链接 https://movie.douban.com/subject/1292479/
◎片  长 160 分钟
◎导  演 布莱克·爱德华兹 Blake Edwards (id:1025287)
◎编  剧 布莱克·爱德华兹 Blake Edwards (id:1025287)
       阿瑟·A·罗斯 Arthur A. Ross (id:1008198)
◎演  员 杰克·莱蒙 Jack Lemmon (id:1007006)
       托尼·柯蒂斯 Tony Curtis (id:1019051)
       娜塔莉·伍德 Natalie Wood (id:1009259)
       Ken Wales Ken Wales (id:1300284)
       亨利·曼西尼 Henry Mancini (id:1002849)
       詹姆斯·B·戈登 James B. Gordon (id:1285183)
       约翰·威廉姆斯 John Williams (id:1054692)

◎简  介
  菲特(杰克·莱蒙 Jack Lemmon 饰)和莱斯利(托尼·柯蒂斯 Tony Curtis 饰)决定进行一场惊天动地的超级大赛车,他们将起点定在纽约,终点定在巴黎。这场惊人的比赛很快就吸引了媒体的注意招致了大肆的报道,女记者玛姬(娜塔利·伍德 Natalie Wood 饰)想要全程跟踪采访比赛,她软磨硬泡总算说服了莱斯利,得到了登上他的赛车和他走完全程的机会。                                    
                                这是一场漫长的比赛,一路上,莱斯利和玛姬之间不断的发生摩擦,他们互相受不了彼此的个性,却又相互深深的吸引,渐渐地,竟然在你来我往之间碰撞出了爱情的火花。临近终点时,莱斯利甚至把车停了下来,只为了向玛姬求婚。

◎获奖情况 (共5项)
  第38届奥斯卡金像奖 (1966)
  彩色片最佳摄影(提名)
   └──拉塞尔·哈伦 (id:1051039)
  最佳剪辑(提名)
   └──拉尔夫·E·温特斯 (id:1020354)
  最佳音响(提名)
   └──乔治·格罗夫斯 (id:1093092)
  最佳音效
   └──泰格·布朗 (id:1041098)
  最佳原创歌曲(提名)

  1. ##### MediaInfo ######
  2. General
  3. Unique ID                                : 287129336010806880033434799625555742165 (0xD803193EBC6357BC95324A427D9D0DD5)
  4. Complete name                            : The.Great.Race.1965.BluRay.1080p.DTS-HD.MA.5.1.x265.10bit-CTRLHD.mkv
  5. Format                                   : Matroska
  6. Format version                           : Version 4
  7. File size                                : 12.7 GiB
  8. Duration                                 : 2 h 39 min
  9. Overall bit rate mode                    : Variable
  10. Overall bit rate                         : 11.4 Mb/s
  11. Encoded date                             : UTC 2022-06-11 08:52:45
  12. Writing application                      : mkvmerge v68.0.0 ('The Curtain') 64-bit
  13. Writing library                          : libebml v1.4.2 + libmatroska v1.6.4
  14. Video
  15. ID                                       : 1
  16. Format                                   : HEVC
  17. Format/Info                              : High Efficiency Video Coding
  18. Format profile                           : Main 10@L4@Main
  19. Codec ID                                 : V_MPEGH/ISO/HEVC
  20. Duration                                 : 2 h 39 min
  21. Bit rate                                 : 7 654 kb/s
  22. Width                                    : 1 920 pixels
  23. Height                                   : 802 pixels
  24. Display aspect ratio                     : 2.40:1
  25. Frame rate mode                          : Constant
  26. Frame rate                               : 23.976 (24000/1001/53354) FPS
  27. Original frame rate                      : 23.976 (23976/1000/53354) FPS
  28. Color space                              : YUV
  29. Chroma subsampling                       : 4:2:0
  30. Bit depth                                : 10 bits
  31. Bits/(Pixel*Frame)                       : 0.207
  32. Stream size                              : 8.55 GiB (67%)
  33. Writing library                          : x265 2.7+15-b9f5b5d7bf95:[Windows][MSVC 1800][64 bit] 10bit
  34. Encoding settings                        : cpuid=533541173503 / frame-threads=4 / numa-pools=20 / wpp / no-pmode / no-pme / no-psnr / no-ssim / log-level=2 / input-csp=1 / input-res=1920x802 / interlace=0 / total-frames=0 / level-idc=0 / high-tier=1 / uhd-bd=0 / ref=6 / no-allow-non-conformance / repeat-headers / annexb / no-aud / no-hrd / info / hash=0 / no-temporal-layers / no-open-gop / min-keyint=23 / keyint=250 / gop-lookahead=0 / bframes=8 / b-adapt=2 / b-pyramid / bframe-bias=0 / rc-lookahead=24 / lookahead-slices=5 / NTMzNTQ=uuDQuD2mJt9fsCf / scenecut=40 / radl=0 / no-intra-refresh / ctu=64 / min-cu-size=8 / no-rect / no-amp / max-tu-size=32 / tu-inter-depth=1 / tu-intra-depth=1 / limit-tu=0 / rdoq-level=0 / dynamic-rd=0.00 / no-ssim-rd / signhide / no-tskip / nr-intra=0 / nr-inter=0 / no-constrained-intra / no-strong-intra-smoothing / max-merge=2 / limit-refs=3 / no-limit-modes / me=2 / subme=7 / merange=48 / temporal-mvp / weightp / weightb / no-analyze-src-pics / deblock=0:0 / sao / no-sao-non-deblock / rd=4 / no-early-skip / rskip / no-fast-intra / no-tskip-fast / no-cu-lossless / no-b-intra / no-splitrd-skip / rdpenalty=0 / psy-rd=2.00 / psy-rdoq=0.00 / no-rd-refine / no-lossless / cbqpoffs=0 / crqpoffs=0 / rc=crf / crf=17.0 / qcomp=0.60 / qpstep=4 / stats-write=0 / stats-read=0 / ipratio=1.40 / pbratio=1.30 / aq-mode=3 / aq-strength=1.00 / cutree / zone-count=0 / no-strict-cbr / qg-size=32 / no-rc-grain / qpmax=69 / qpmin=0 / no-const-vbv / sar=0 / overscan=0 / videoformat=5 / range=0 / colorprim=2 / transfer=2 / colormatrix=2 / chromaloc=0 / display-window=0 / max-cll=0,0 / min-luma=0 / max-luma=1023 / log2-max-poc-lsb=8 / vui-timing-info / vui-hrd-info / slices=1 / no-opt-qp-pps / no-opt-ref-list-length-pps / no-multi-pass-opt-rps / scenecut-bias=0.05 / no-opt-cu-delta-qp / aq-motion / no-hdr / no-hdr-opt / no-dhdr10-opt / no-idr-recovery-sei / analysis-reuse-level=5 / scale-factor=0 / refine-intra=0 / refine-inter=0 / refine-mv=0 / no-limit-sao / ctu-info=0 / no-lowpass-dct / refine-mv-type=0 / copy-pic=1 / max-ausize-factor=1.0 / no-dynamic-refine
  35. Default                                  : Yes
  36. Forced                                   : No
  37. Audio
  38. ID                                       : 2
  39. Format                                   : DTS XLL
  40. Format/Info                              : Digital Theater Systems
  41. Commercial name                          : DTS-HD Master Audio
  42. Codec ID                                 : A_DTS
  43. Duration                                 : 2 h 39 min
  44. Bit rate mode                            : Variable
  45. Bit rate                                 : 3 686 kb/s
  46. Channel(s)                               : 6 channels
  47. Channel layout                           : C L R Ls Rs LFE
  48. Sampling rate                            : 48.0 kHz
  49. Frame rate                               : 93.750 FPS (512 SPF)
  50. Bit depth                                : 24 bits
  51. Compression mode                         : Lossless
  52. Stream size                              : 4.12 GiB (32%)
  53. Language                                 : English
  54. Default                                  : Yes
  55. Forced                                   : No
  56. Text #1
  57. ID                                       : 3
  58. Format                                   : PGS
  59. Muxing mode                              : zlib
  60. Codec ID                                 : S_HDMV/PGS
  61. Codec ID/Info                            : Picture based subtitle format used on BDs/HD-DVDs
  62. Duration                                 : 2 h 30 min
  63. Bit rate                                 : 28.0 kb/s
  64. Count of elements                        : 3156
  65. Stream size                              : 30.2 MiB (0%)
  66. Language                                 : English
  67. Default                                  : Yes
  68. Forced                                   : No
  69. Text #2
  70. ID                                       : 4
  71. Format                                   : PGS
  72. Muxing mode                              : zlib
  73. Codec ID                                 : S_HDMV/PGS
  74. Codec ID/Info                            : Picture based subtitle format used on BDs/HD-DVDs
  75. Duration                                 : 2 h 30 min
  76. Bit rate                                 : 26.3 kb/s
  77. Count of elements                        : 2887
  78. Stream size                              : 28.3 MiB (0%)
  79. Title                                    : CHS
  80. Language                                 : Chinese
  81. Default                                  : Yes
  82. Forced                                   : No
  83. Text #3
  84. ID                                       : 5
  85. Format                                   : PGS
  86. Muxing mode                              : zlib
  87. Codec ID                                 : S_HDMV/PGS
  88. Codec ID/Info                            : Picture based subtitle format used on BDs/HD-DVDs
  89. Duration                                 : 2 h 30 min
  90. Bit rate                                 : 27.1 kb/s
  91. Count of elements                        : 2887
  92. Stream size                              : 29.2 MiB (0%)
  93. Title                                    : CHT
  94. Language                                 : Chinese
  95. Default                                  : Yes
  96. Forced                                   : No
  97. Text #4
  98. ID                                       : 6
  99. Format                                   : PGS
  100. Muxing mode                              : zlib
  101. Codec ID                                 : S_HDMV/PGS
  102. Codec ID/Info                            : Picture based subtitle format used on BDs/HD-DVDs
  103. Duration                                 : 2 h 31 min
  104. Bit rate                                 : 20.7 kb/s
  105. Count of elements                        : 2889
  106. Stream size                              : 22.4 MiB (0%)
  107. Title                                    : CHS
  108. Language                                 : Chinese
  109. Default                                  : Yes
  110. Forced                                   : No
  111. Menu
  112. 00:00:00.000                             : en:第 01 章
  113. 00:03:43.890                             : en:第 02 章
  114. 00:06:39.441                             : en:第 03 章
  115. 00:10:16.449                             : en:第 04 章
  116. 00:13:20.967                             : en:第 05 章
  117. 00:15:49.615                             : en:第 06 章
  118. 00:18:22.935                             : en:第 07 章
  119. 00:21:00.885                             : en:第 08 章
  120. 00:23:37.124                             : en:第 09 章
  121. 00:25:57.139                             : en:第 10 章
  122. 00:29:56.795                             : en:第 11 章
  123. 00:32:50.635                             : en:第 12 章
  124. 00:37:45.180                             : en:第 13 章
  125. 00:42:17.243                             : en:第 14 章
  126. 00:45:31.020                             : en:第 15 章
  127. 00:51:17.241                             : en:第 16 章
  128. 00:53:04.973                             : en:第 17 章
  129. 00:57:24.983                             : en:第 18 章
  130. 01:00:24.663                             : en:第 19 章
  131. 01:05:32.762                             : en:第 20 章
  132. 01:11:17.857                             : en:第 21 章
  133. 01:16:49.313                             : en:第 22 章
  134. 01:21:54.076                             : en:第 23 章
  135. 01:25:27.456                             : en:第 24 章
  136. 01:28:23.215                             : en:第 25 章
  137. 01:30:21.875                             : en:第 26 章
  138. 01:32:09.107                             : en:第 27 章
  139. 01:36:54.517                             : en:第 28 章
  140. 01:40:46.165                             : en:第 29 章
  141. 01:44:34.643                             : en:第 30 章
  142. 01:48:08.440                             : en:第 31 章
  143. 01:52:05.218                             : en:第 32 章
  144. 01:55:02.687                             : en:第 33 章
  145. 01:59:18.151                             : en:第 34 章
  146. 02:03:55.261                             : en:第 35 章
  147. 02:07:52.206                             : en:第 36 章
  148. 02:13:24.955                             : en:第 37 章
  149. 02:17:46.133                             : en:第 38 章
  150. 02:21:18.178                             : en:第 39 章
  151. 02:26:14.557                             : en:第 40 章
  152. 02:29:51.482                             : en:第 41 章
  153. 02:33:31.202                             : en:第 42 章
  154. 02:36:05.898                             : en:第 43 章
  155. 02:38:08.479                             : en:第 44 章





此处一般会放置磁力链或种子下载链接,不过此链接需要注册会员才能看到,点击“立即注册”
磁力链下载【下载链接仅对注册会员开放,登陆后可见】
BT9527电影天堂 1、BT9527电影天堂提供的BT文件均来源于互联网抓取,只供网友学习交流、技术提升使用。
2、我们遵守BitTorrent点对点协议原则,任何版权问题请联系原资源发布商,我们不处理任何版权纠纷,谢谢!如有争议请联系邮箱:BT9527#hotmail.com(#换成@)
3、如果您发现某页面或地址有错误,请联系站长邮箱BT9527#hotmail.com(#换成@),我们会尽快处理。您的热心是对BT9527电影天堂最大的支持。
4、本站建议去正规影院观看电影以支持电影行业发展。
最新回复 (0)

你可以在 登录 or 注册 后,对此帖发表评论!

返回
发新帖