豺狼的日子[中文字幕].The.Day.of.the.Jackal.1973.BluRay.1080p.LPCM.2.0.x265.10bit-CTRLHD 8.58GB

版主小s 20天前 138

✔资源类型:暂未分类   ✔电影年份:更 早   ✔电影地区:欧美   ✔电影分类:剧情

◎译  名 豺狼的日子 / 刺杀戴高乐 / 神探智擒职业杀手 / 豺狼末日 / 豺狼之日
◎片  名 The Day of the Jackal
◎年  代 1973
◎产  地 英国 / 法国
◎类  别 剧情 / 惊悚
◎语  言 英语 / 意大利语 / 法语
◎上映日期 1973-05-16
◎IMDb链接 https://www.imdb.com/title/tt0069947/
◎豆瓣评分 8.2/10 (2487人评价)
◎豆瓣链接 https://movie.douban.com/subject/1293835/
◎片  长 143 分钟
◎导  演 弗雷德·金尼曼 Fred Zinnemann (id:1045186)
◎编  剧 弗雷德里克·福赛斯 Frederick Forsyth (id:1050444)
       肯尼斯·罗斯 Kenneth Ross (id:1296137)
◎演  员 爱德华·福克斯 Edward Fox (id:1002788)
       特伦斯·亚历山大 Terence Alexander (id:1060891)
       米歇尔·奥克莱尔 Michel Auclair (id:1050717)
       艾兰·巴德尔 Alan Badel (id:1050340)
       托尼·布里顿 Tony Britton (id:1022509)
       Denis Carey Denis Carey (id:1071611)
       西里尔·库萨克 Cyril Cusack (id:1036711)
       莫瑞斯·德纳姆 Maurice Denham (id:1084695)
       弗农·多布切夫 Vernon Dobtcheff (id:1022603)
       雅克·弗朗索瓦 Jacques Fran?ois (id:1084641)
       奥尔加·乔治斯-皮科 Olga Georges-Picot (id:1101704)
       雷蒙·热罗姆 Raymond Gér?me (id:1098440)
       巴里·英厄姆 Barrie Ingham (id:1113168)
       德里克·雅各比 Derek Jacobi (id:1027866)
       迈克尔·朗斯代尔 Michael Lonsdale (id:1035664)
       让·马丹 Jean Martin (id:1032831)
       罗纳德·皮卡普 Ronald Pickup (id:1137143)
       埃里克·波特 Eric Porter (id:1131085)
       安东·罗杰斯 Anton Rodgers (id:1016761)
       德菲因·塞里格 Delphine Seyrig (id:1000594)
       唐纳德·辛顿 Donald Sinden (id:1028014)
       让·索雷尔 Jean Sorel (id:1028285)
       提摩西·韦斯特 Timothy West (id:1027954)
       Bernard Archard Bernard Archard (id:1058379)
       Colette Bergé Colette Bergé (id:1067117)
       格雷德·布尔 Gérard Buhr (id:1074346)
       菲利普·莱奥塔尔 Philippe Léotard (id:1050577)
       莫里斯·泰纳克 Maurice Teynac (id:1150571)
       范都德 Van Doude (id:1087882)
       尼古拉·沃热尔 Nicolas Vogel (id:1163942)
       费奥多尔·阿特金 Féodor Atkine (id:1031196)
       Albert Augier Albert Augier (id:1059803)
       玛德莱娜·巴尔比莱 Madeleine Barbulée (id:1063227)
       让·尚皮恩 Jean Champion (id:1073889)
       拉乌尔·屈雷 Raoul Curet (id:1075143)
       马德莱娜·达米安 Madeleine Damien (id:1075752)
       Yvonne Dany Yvonne Dany (id:1080343)
       妮可·德塞利 Nicole Desailly (id:1090638)
       罗伯特·法瓦尔 Robert Favart (id:1087927)
       安德烈亚·费雷奥尔 Andréa Ferréol (id:1083033)
       吉尔贝特·热尼亚 Gilberte Géniat (id:1094261)
       爱德华·哈德威克 Edward Hardwicke (id:1025330)
       雅克·黑林 Jacques Hilling (id:1101472)
       大卫·克南 David Kernan (id:1108795)
       罗贝尔·勒贝亚尔 Robert Le Béal (id:1113064)
       Roger Lumont Roger Lumont (id:1115737)
       迈克·马歇尔 Mike Marshall (id:1123754)
       Jean Michaud Jean Michaud (id:1124018)
       贝尔纳·米松 Bernard Musson (id:1132041)
       安德烈·彭文 André Penvern (id:1340188)
       皮埃尔·里施 Pierre Risch (id:1368987)
       莉莲娜·罗维埃 Liliane Rovère (id:1415017)
       米歇尔·索博 Michel Subor (id:1005803)
       Fran?ois Valorbe Fran?ois Valorbe (id:1158906)
       霍华德·沃侬 Howard Vernon (id:1012652)
       Nicholas Young Nicholas Young (id:1165232)
       乔治·德勒吕 Georges Delerue (id:1054306)
       Louis Pitzele Louis Pitzele (id:1294596)

◎简  介
  讲述英籍职业杀手受聘暗杀法国总统戴高乐,而法国警方亦从蛛丝马迹中获知了他的阴谋,于是全力阻止杀手的行动。

◎获奖情况 (共1项)
  第46届奥斯卡金像奖 (1974)
  最佳剪辑(提名)
   └──拉尔夫·坎普伦 (id:1029784)

  1. ##### MediaInfo ######
  2. General
  3. Unique ID                                : 325046557267847589558297534838677701051 (0xF489B0967C0EF576D2CAD1BAF8C801BB)
  4. Complete name                            : The.Day.of.the.Jackal.1973.BluRay.1080p.LPCM.2.0.x265.10bit-CTRLHD.mkv
  5. Format                                   : Matroska
  6. Format version                           : Version 4
  7. File size                                : 8.58 GiB
  8. Duration                                 : 2 h 22 min
  9. Overall bit rate                         : 8 620 kb/s
  10. Encoded date                             : UTC 2022-06-13 06:04:47
  11. Writing application                      : mkvmerge v45.0.0 ('Heaven in Pennies') 64-bit
  12. Writing library                          : libebml v1.3.10 + libmatroska v1.5.2
  13. Video #1
  14. ID                                       : 1
  15. Format                                   : HEVC
  16. Format/Info                              : High Efficiency Video Coding
  17. Format profile                           : Main 10@L5.1@High
  18. Codec ID                                 : V_MPEGH/ISO/HEVC
  19. Duration                                 : 2 h 22 min
  20. Bit rate                                 : 8 534 kb/s
  21. Width                                    : 1 920 pixels
  22. Height                                   : 1 040 pixels
  23. Display aspect ratio                     : 1.85:1
  24. Frame rate mode                          : Constant
  25. Frame rate                               : 23.976 (24000/1001/53354) FPS
  26. Color space                              : YUV
  27. Chroma subsampling                       : 4:2:0
  28. Bit depth                                : 10 bits
  29. Bits/(Pixel*Frame)                       : 0.178
  30. Stream size                              : 8.49 GiB (99%)
  31. Writing library                          : x265 3.4+24-g6ed1c24a2:[Windows][GCC 10.2.1][64 bit] 10bit
  32. Encoding settings                        : cpuid=533541111039 / frame-threads=3 / numa-pools=12 / wpp / pmode / pme / no-psnr / no-ssim / log-level=2 / input-csp=1 / input-res=1920x1040 / interlace=0 / total-frames=205001 / level-idc=51 / high-tier=1 / uhd-bd=0 / ref=4 / no-allow-non-conformance / repeat-headers / annexb / no-aud / no-hrd / info / hash=0 / no-temporal-layers / no-open-gop / min-keyint=23 / keyint=250 / gop-lookahead=0 / bframes=8 / b-adapt=2 / b-pyramid / bframe-bias=0 / rc-lookahead=60 / lookahead-slices=6 / NTMzNTQ=uuDQuD2mJt9fsCf / scenecut=40 / hist-scenecut=0 / radl=0 / no-splice / no-intra-refresh / ctu=32 / min-cu-size=8 / no-rect / no-amp / max-tu-size=32 / tu-inter-depth=3 / tu-intra-depth=3 / limit-tu=0 / rdoq-level=0 / dynamic-rd=0.00 / no-ssim-rd / signhide / no-tskip / nr-intra=0 / nr-inter=0 / no-constrained-intra / strong-intra-smoothing / max-merge=3 / limit-refs=1 / no-limit-modes / me=2 / subme=5 / merange=48 / temporal-mvp / no-frame-dup / no-hme / weightp / weightb / no-analyze-src-pics / deblock=0:0 / no-sao / no-sao-non-deblock / rd=3 / selective-sao=0 / early-skip / rskip / no-fast-intra / no-tskip-fast / no-cu-lossless / b-intra / no-splitrd-skip / rdpenalty=1 / psy-rd=2.00 / psy-rdoq=0.00 / no-rd-refine / no-lossless / cbqpoffs=0 / crqpoffs=0 / rc=crf / crf=18.7 / qcomp=0.50 / qpstep=4 / stats-write=0 / stats-read=0 / vbv-maxrate=160000 / vbv-bufsize=160000 / vbv-init=0.9 / crf-max=0.0 / crf-min=0.0 / ipratio=1.40 / pbratio=1.20 / aq-mode=2 / aq-strength=0.90 / cutree / zone-count=0 / no-strict-cbr / qg-size=32 / no-rc-grain / qpmax=69 / qpmin=0 / no-const-vbv / sar=0 / overscan=0 / videoformat=5 / range=0 / colorprim=1 / transfer=1 / colormatrix=1 / chromaloc=0 / display-window=0 / cll=0,0 / min-luma=0 / max-luma=1023 / log2-max-poc-lsb=8 / vui-timing-info / vui-hrd-info / slices=1 / no-opt-qp-pps / no-opt-ref-list-length-pps / no-multi-pass-opt-rps / scenecut-bias=0.05 / hist-threshold=0.03 / no-opt-cu-delta-qp / no-aq-motion / no-hdr10 / no-hdr10-opt / no-dhdr10-opt / no-idr-recovery-sei / analysis-reuse-level=0 / analysis-save-reuse-level=0 / analysis-load-reuse-level=0 / scale-factor=0 / refine-intra=0 / refine-inter=0 / refine-mv=1 / refine-ctu-distortion=0 / no-limit-sao / ctu-info=0 / no-lowpass-dct / refine-analysis-type=0 / copy-pic=1 / max-ausize-factor=1.0 / no-dynamic-refine / no-single-sei / no-hevc-aq / no-svt / no-field / qp-adaptation-range=1.00 / no-scenecut-aware-qpconformance-window-offsets / right=0 / bottom=0 / NTMzNTQ= / decoder-max-rate=0 / no-vbv-live-multi-pass
  33. Default                                  : No
  34. Forced                                   : No
  35. Color range                              : Limited
  36. Color primaries                          : BT.709
  37. Transfer characteristics                 : BT.709
  38. Matrix coefficients                      : BT.709
  39. Video #2
  40. ID                                       : 2
  41. Format                                   : AVC
  42. Format/Info                              : Advanced Video Codec
  43. Codec ID                                 : V_MPEG4/ISO/AVC
  44. Bit rate                                 : 0 b/s
  45. Width                                    : 16 pixels
  46. Height                                   : 32 pixels
  47. Display aspect ratio                     : 0.500
  48. Frame rate mode                          : Constant
  49. Stream size                              : 0.00 Byte (0%)
  50. Language                                 : English
  51. Default                                  : Yes
  52. Forced                                   : No
  53. Text #1
  54. ID                                       : 3
  55. Format                                   : PGS
  56. Muxing mode                              : zlib
  57. Codec ID                                 : S_HDMV/PGS
  58. Codec ID/Info                            : Picture based subtitle format used on BDs/HD-DVDs
  59. Duration                                 : 2 h 21 min
  60. Bit rate                                 : 22.2 kb/s
  61. Count of elements                        : 2122
  62. Stream size                              : 22.5 MiB (0%)
  63. Language                                 : English
  64. Default                                  : No
  65. Forced                                   : No
  66. Text #2
  67. ID                                       : 4
  68. Format                                   : PGS
  69. Muxing mode                              : zlib
  70. Codec ID                                 : S_HDMV/PGS
  71. Codec ID/Info                            : Picture based subtitle format used on BDs/HD-DVDs
  72. Duration                                 : 2 h 21 min
  73. Bit rate                                 : 27.7 kb/s
  74. Count of elements                        : 2172
  75. Stream size                              : 28.0 MiB (0%)
  76. Language                                 : Chinese
  77. Default                                  : Yes
  78. Forced                                   : No
  79. Text #3
  80. ID                                       : 5
  81. Format                                   : PGS
  82. Muxing mode                              : zlib
  83. Codec ID                                 : S_HDMV/PGS
  84. Codec ID/Info                            : Picture based subtitle format used on BDs/HD-DVDs
  85. Duration                                 : 2 h 21 min
  86. Bit rate                                 : 29.3 kb/s
  87. Count of elements                        : 2172
  88. Stream size                              : 29.6 MiB (0%)
  89. Language                                 : Chinese
  90. Default                                  : No
  91. Forced                                   : No
  92. Text #4
  93. ID                                       : 6
  94. Format                                   : PGS
  95. Muxing mode                              : zlib
  96. Codec ID                                 : S_HDMV/PGS
  97. Codec ID/Info                            : Picture based subtitle format used on BDs/HD-DVDs
  98. Duration                                 : 2 h 21 min
  99. Bit rate                                 : 40.8 kb/s
  100. Count of elements                        : 2172
  101. Stream size                              : 41.2 MiB (0%)
  102. Language                                 : Chinese
  103. Default                                  : No
  104. Forced                                   : No
  105. Text #5
  106. ID                                       : 7
  107. Format                                   : PGS
  108. Muxing mode                              : zlib
  109. Codec ID                                 : S_HDMV/PGS
  110. Codec ID/Info                            : Picture based subtitle format used on BDs/HD-DVDs
  111. Duration                                 : 2 h 21 min
  112. Bit rate                                 : 39.5 kb/s
  113. Count of elements                        : 2172
  114. Stream size                              : 39.9 MiB (0%)
  115. Language                                 : Chinese
  116. Default                                  : No
  117. Forced                                   : No
  118. Menu
  119. 00:00:00.000                             : en:Chapter 1
  120. 00:00:16.767                             : en:Chapter 2
  121. 00:15:50.908                             : en:Chapter 3
  122. 00:29:51.081                             : en:Chapter 4
  123. 01:12:12.328                             : en:Chapter 5
  124. 01:43:16.857                             : en:Chapter 6
  125. 02:20:25.083                             : en:Chapter 7



此处一般会放置磁力链或种子下载链接,不过此链接需要注册会员才能看到,点击“立即注册”
磁力链下载【下载链接仅对注册会员开放,登陆后可见】
BT9527电影天堂 1、BT9527电影天堂提供的BT文件均来源于互联网抓取,只供网友学习交流、技术提升使用。
2、我们遵守BitTorrent点对点协议原则,任何版权问题请联系原资源发布商,我们不处理任何版权纠纷,谢谢!如有争议请联系邮箱:BT9527#hotmail.com(#换成@)
3、如果您发现某页面或地址有错误,请联系站长邮箱BT9527#hotmail.com(#换成@),我们会尽快处理。您的热心是对BT9527电影天堂最大的支持。
4、本站建议去正规影院观看电影以支持电影行业发展。
最新回复 (0)

你可以在 登录 or 注册 后,对此帖发表评论!

返回
发新帖