分歧者3:忠诚世界[国语配音/中文字幕/特效字幕].Allegiant.2016.BluRay.2160p.TrueHD.7.1.HDR.x265.10bit-CTRLHD 24.57GB

版主小s 17天前 153

✔资源类型:BD-4K   ✔电影年份:2016   ✔电影地区:欧美   ✔电影分类:动作

◎译  名 分歧者3:忠诚世界 / 赤诚者?末世醒觉(港) / 分歧者3:赤诚者(台) / 忠诚者(上) / 效忠者(上) / 分歧者3:效忠者(上) / 分歧者3:忠诚者(上) / Allegiant: Part 1
◎片  名 The Divergent Series: Allegiant
◎年  代 2016
◎产  地 美国
◎类  别 动作 / 科幻 / 冒险
◎语  言 英语
◎上映日期 2016-05-20(中国大陆) / 2016-03-08(曼谷首映) / 2016-03-18(美国)
◎IMDb链接 https://www.imdb.com/title/tt3410834/
◎豆瓣评分 6.0/10 (47080人评价)
◎豆瓣链接 https://movie.douban.com/subject/25794302/
◎片  长 121分钟
◎导  演 罗伯特·斯文克 Robert Schwentke (id:1297058)
◎编  剧 诺亚·奥本海姆 Noah Oppenheim (id:1333683)
       亚当·库珀 Adam Cooper (id:1343501)
       比尔·科拉奇 Bill Collage (id:1343502)
       维罗尼卡·罗斯 Veronica Roth (id:1333562)
◎演  员 谢琳·伍德蕾 Shailene Woodley (id:1040526)
       西奥·詹姆斯 Theo James (id:1314251)
       杰夫·丹尼尔斯 Jeff Daniels (id:1006974)
       奥克塔维亚·斯宾瑟 Octavia Spencer (id:1154263)
       雷·史蒂文森 Ray Stevenson (id:1019007)
       佐伊·克罗维兹 Zo? Kravitz (id:1229502)
       迈尔斯·特勒 Miles Teller (id:1313408)
       安塞尔·艾尔高特 Ansel Elgort (id:1335176)
       李美琪 Maggie Q (id:1019013)
       比尔·斯卡斯加德 Bill Skarsg?rd (id:1022798)
       娜奥米·沃茨 Naomi Watts (id:1016675)
       乔尼·维斯顿 Jonny Weston (id:1327004)
       考特尼·霍普 Courtney Hope (id:1220268)
       安妮斯顿·普莱斯 Anniston Price (id:1360286)
       婷斯莉·普莱斯 Tinsley Price (id:1360287)
       大卫·安 David An (id:1392831)
       金大贤 Daniel Dae Kim (id:1022618)
       凯南·朗斯代尔 Keiynan Lonsdale (id:1339607)
       卡莱卡 Kaleka (id:1440517)
       珍妮·麦克蒂尔 Janet McTeer (id:1045011)
       约瑟夫·戴维-琼斯 Joseph David-Jones (id:1378716)
       梅奇·费法 Mekhi Phifer (id:1013836)
       本-莱文 Ben Levin (id:1211917)
       帕里萨·庄士敦 Parisa Johnston (id:1411288)
       丽贝卡·彼得根 Rebecca Pidgeon (id:1027392)
       艾什莉·贾德 Ashley Judd (id:1000014)
       丹妮尔·林 Danielle Lyn (id:1386117)
       安迪·比恩 Andy Bean (id:1383557)
       乔顿卡尔文 Jordanne Calvin (id:1368099)
       迈克尔·比斯利 Michael Beasley (id:1335294)
       纳迪娅·希尔克 Nadia Hilker (id:1355969)
       齐科·扎基 Zeeko Zaki (id:1364398)
       奥图姆·戴尔 Autumn Dial (id:1357563)
       尼尔·博格 Neil Burger (id:1303891)
       约瑟夫·特雷帕尼斯 Joseph Trapanese (id:1378570)
       弗洛里安·巴尔豪斯 Florian Ballhaus (id:1420282)
       玛琳·斯图尔特 Marlene Stewart (id:1051194)

◎简  介
  派系制度瓦解了,老四(提奥·詹姆斯 Theo James 饰)的母亲伊芙琳(娜奥米·沃茨 Naomi Watts 饰)成为了墙内世界的统治者,她利用强悍而又严格的武装力量控制墙内居民,不允许他们越雷池一步。可偏偏翠丝(谢琳·伍德蕾 Shailene Woodley 饰)和老四不信这个邪,他们坚信,未来和希望是属于墙外世界的。                                    
                                于是,两人带领着克里斯蒂娜(佐伊·克拉维兹 Zoe Kravitz 饰)、皮特(迈尔斯·特勒 Miles Teller 饰)和托里(李美琪 Maggie Q 饰)等人突出重围,终于来到了高墙的那一边。在那一边,基因局收留了翠丝一行人,表面看来基因局扮演的俨然是正义的一方,但实际上,其负责人大卫(杰夫·丹尼尔斯 Jeff Daniels 饰)怀揣着极大的野心,隐藏了一个惊人的秘密。

◎获奖情况 (共1项)
  第37届金酸莓奖 (2017)
  最差女主角(提名)

  1. ##### MediaInfo ######
  2. General
  3. Unique ID                                : 277331073952074353227182704023981462052 (0xD0A405A0B331E1944F3380B672BF1224)
  4. Complete name                            : Allegiant.2016.BluRay.2160p.TrueHD.7.1.HDR.x265.10bit-CTRLHD.mkv
  5. Format                                   : Matroska
  6. Format version                           : Version 4
  7. File size                                : 24.6 GiB
  8. Duration                                 : 2 h 0 min
  9. Overall bit rate mode                    : Variable
  10. Overall bit rate                         : 29.2 Mb/s
  11. Movie name                               : Allegiant - Ultra HD Blu-ray?
  12. Encoded date                             : UTC 2022-06-13 01:47:41
  13. Writing application                      : mkvmerge v63.0.0 ('Everything') 64-bit
  14. Writing library                          : libebml v1.4.2 + libmatroska v1.6.4
  15. Cover                                    : Yes
  16. Attachments                              : cover.jpg
  17. Video
  18. ID                                       : 1
  19. Format                                   : HEVC
  20. Format/Info                              : High Efficiency Video Coding
  21. Format profile                           : Main 10@L5.1@High
  22. HDR format                               : SMPTE ST 2086, HDR10 compatible
  23. Codec ID                                 : V_MPEGH/ISO/HEVC
  24. Duration                                 : 2 h 0 min
  25. Bit rate                                 : 19.5 Mb/s
  26. Width                                    : 3 840 pixels
  27. Height                                   : 1 600 pixels
  28. Display aspect ratio                     : 2.40:1
  29. Frame rate mode                          : Constant
  30. Frame rate                               : 23.976 (24000/1001/53354) FPS
  31. Color space                              : YUV
  32. Chroma subsampling                       : 4:2:0 (Type 2)
  33. Bit depth                                : 10 bits
  34. Bits/(Pixel*Frame)                       : 0.132
  35. Stream size                              : 16.4 GiB (67%)
  36. Writing library                          : x265 3.5+2-g2b25c9ba0+87:[Windows][clang 12.0.1][64 bit] Kasumi 10bit
  37. Encoding settings                        : rc=crf / crf=12.5000 / qcomp=0.60 / qpstep=4 / stats-write=0 / stats-read=0 / no-lossless / no-cu-lossless / aq-mode=1 / aq-strength=1.00 / cbqpoffs=0 / crqpoffs=0 / ipratio=1.40 / pbratio=1.30 / psy-rd=3.00 / psy-rdoq=4.80 / deblock=0:0 / ref=6 / limit-refs=1 / no-limit-modes / bframes=14 / b-adapt=2 / bframe-bias=0 / b-pyramid / b-intra / weightp / weightb / min-keyint=23 / max-keyint=250 / rc-lookahead=75 / gop-lookahead=0 / NTMzNTQ=uuDQuD2mJt9fsCf / scenecut=40 / hist-scenecut=0 / radl=0 / max-cu-size=64 / min-cu-size=8 / me=3 / subme=7 / merange=64 / rdoq-level=2 / rd=4 / rdpenalty=2 / dynamic-rd=0.00 / no-rd-refine / ----- / cutree / no-sao / no-rect / no-amp / no-open-gop / wpp / no-pmode / no-pme / no-psnr / no-ssim / nr-intra=0 / nr-inter=0 / no-constrained-intra / no-strong-intra-smoothing / max-tu-size=32 / tu-inter-depth=1 / tu-intra-depth=1 / limit-tu=0 / qg-size=32 / qpmax=69 / qpmin=0 / ----- / cpuid=533541111039 / frame-threads=5 / numa-pools=64,64,0,0 / log-level=2 / input-csp=1 / input-res=3840x1600 / interlace=0 / level-idc=0 / high-tier=1 / uhd-bd=0 / no-allow-non-conformance / repeat-headers / no-aud / no-hrd / info / hash=0 / no-temporal-layers / lookahead-slices=8 / no-splice / no-intra-refresh / no-ssim-rd / signhide / no-tskip / max-merge=3 / temporal-mvp / no-frame-dup / no-hme / no-analyze-src-pics / no-sao-non-deblock / selective-sao=0 / early-skip / rskip / no-fast-intra / no-tskip-fast / no-splitrd-skip / zone-count=0 / no-strict-cbr / no-rc-grain / no-const-vbv / sar=0 / overscan=0 / videoformat=5 / range=0 / colorprim=9 / transfer=16 / colormatrix=9 / chromaloc=1 / chromaloc-top=2 / chromaloc-bottom=2 / display-window=0 / master-display=G(13250,34500)B(7500,3000)R(34000,16000)WP(15635,16450)L(10000000,1) / cll=0,0 / min-luma=0 / max-luma=1023 / log2-max-poc-lsb=8 / vui-timing-info / vui-hrd-info / slices=1 / no-opt-qp-pps / no-opt-ref-list-length-pps / no-multi-pass-opt-rps / scenecut-bias=0.05 / hist-threshold=0.03 / no-opt-cu-delta-qp / aq-motion / hdr10 / hdr10-opt / no-dhdr10-opt / no-idr-recovery-sei / analysis-reuse-level=0 / analysis-save-reuse-level=0 / analysis-load-reuse-level=0 / scale-factor=0 / refine-intra=0 / refine-inter=0 / refine-mv=1 / refine-ctu-distortion=0 / no-limit-sao / ctu-info=0 / no-lowpass-dct / refine-analysis-type=0 / copy-pic=1 / max-ausize-factor=1.0 / no-dynamic-refine / no-single-sei / no-hevc-aq / no-svt / no-field / qp-adaptation-range=1.00 / scenecut-aware-qp=0conformance-window-offsets / right=0 / bottom=0 / NTMzNTQ= / decoder-max-rate=0 / no-vbv-live-multi-pass
  38. Default                                  : Yes
  39. Forced                                   : No
  40. Color range                              : Limited
  41. Color primaries                          : BT.2020
  42. Transfer characteristics                 : PQ
  43. Matrix coefficients                      : BT.2020 non-constant
  44. Mastering display color primaries        : Display P3
  45. Mastering display luminance              : min: 0.0001 cd/m2, max: 1000 cd/m2
  46. Audio #1
  47. ID                                       : 2
  48. ID in the original source medium         : 4352 (0x1100)
  49. Format                                   : MLP FBA 16-ch
  50. Format/Info                              : Meridian Lossless Packing FBA with 16-channel presentation
  51. Commercial name                          : Dolby TrueHD with Dolby Atmos
  52. Codec ID                                 : A_TRUEHD
  53. Duration                                 : 2 h 0 min
  54. Bit rate mode                            : Variable
  55. Bit rate                                 : 4 816 kb/s
  56. Maximum bit rate                         : 8 859 kb/s
  57. Channel(s)                               : 8 channels
  58. Channel layout                           : L R C LFE Ls Rs Lb Rb
  59. Sampling rate                            : 48.0 kHz
  60. Frame rate                               : 1 200.000 FPS (40 SPF)
  61. Compression mode                         : Lossless
  62. Stream size                              : 4.05 GiB (17%)
  63. Language                                 : English
  64. Default                                  : Yes
  65. Forced                                   : No
  66. Original source medium                   : Blu-ray
  67. Number of dynamic objects                : 15
  68. Bed channel count                        : 1 channel
  69. Bed channel configuration                : LFE
  70. Audio #2
  71. ID                                       : 3
  72. ID in the original source medium         : 4353 (0x1101)
  73. Format                                   : MLP FBA
  74. Format/Info                              : Meridian Lossless Packing FBA
  75. Commercial name                          : Dolby TrueHD
  76. Codec ID                                 : A_TRUEHD
  77. Duration                                 : 2 h 0 min
  78. Bit rate mode                            : Variable
  79. Bit rate                                 : 4 587 kb/s
  80. Maximum bit rate                         : 6 390 kb/s
  81. Channel(s)                               : 8 channels
  82. Channel layout                           : L R C LFE Ls Rs Lb Rb
  83. Sampling rate                            : 48.0 kHz
  84. Frame rate                               : 1 200.000 FPS (40 SPF)
  85. Compression mode                         : Lossless
  86. Stream size                              : 3.86 GiB (16%)
  87. Title                                    : 重混央视国配7.1
  88. Language                                 : Chinese
  89. Default                                  : Yes
  90. Forced                                   : No
  91. Original source medium                   : Blu-ray
  92. Text #1
  93. ID                                       : 4
  94. ID in the original source medium         : 4768 (0x12A0)
  95. Format                                   : PGS
  96. Muxing mode                              : zlib
  97. Codec ID                                 : S_HDMV/PGS
  98. Codec ID/Info                            : Picture based subtitle format used on BDs/HD-DVDs
  99. Duration                                 : 1 h 48 min
  100. Bit rate                                 : 27.0 kb/s
  101. Count of elements                        : 2350
  102. Stream size                              : 21.0 MiB (0%)
  103. Language                                 : English
  104. Default                                  : Yes
  105. Forced                                   : No
  106. Original source medium                   : Blu-ray
  107. Text #2
  108. ID                                       : 5
  109. ID in the original source medium         : 4771 (0x12A3)
  110. Format                                   : PGS
  111. Muxing mode                              : zlib
  112. Codec ID                                 : S_HDMV/PGS
  113. Codec ID/Info                            : Picture based subtitle format used on BDs/HD-DVDs
  114. Duration                                 : 1 h 49 min
  115. Bit rate                                 : 46.2 kb/s
  116. Count of elements                        : 2845
  117. Stream size                              : 36.0 MiB (0%)
  118. Title                                    : 简体特效
  119. Language                                 : Chinese
  120. Default                                  : Yes
  121. Forced                                   : No
  122. Original source medium                   : Blu-ray
  123. Text #3
  124. ID                                       : 6
  125. ID in the original source medium         : 4772 (0x12A4)
  126. Format                                   : PGS
  127. Muxing mode                              : zlib
  128. Codec ID                                 : S_HDMV/PGS
  129. Codec ID/Info                            : Picture based subtitle format used on BDs/HD-DVDs
  130. Duration                                 : 1 h 49 min
  131. Bit rate                                 : 46.9 kb/s
  132. Count of elements                        : 2845
  133. Stream size                              : 36.6 MiB (0%)
  134. Title                                    : 繁体特效
  135. Language                                 : Chinese
  136. Default                                  : Yes
  137. Forced                                   : No
  138. Original source medium                   : Blu-ray
  139. Text #4
  140. ID                                       : 7
  141. ID in the original source medium         : 4773 (0x12A5)
  142. Format                                   : PGS
  143. Muxing mode                              : zlib
  144. Codec ID                                 : S_HDMV/PGS
  145. Codec ID/Info                            : Picture based subtitle format used on BDs/HD-DVDs
  146. Duration                                 : 1 h 49 min
  147. Bit rate                                 : 64.2 kb/s
  148. Count of elements                        : 2845
  149. Stream size                              : 50.0 MiB (0%)
  150. Title                                    : 简英特效
  151. Language                                 : Chinese
  152. Default                                  : Yes
  153. Forced                                   : No
  154. Original source medium                   : Blu-ray
  155. Text #5
  156. ID                                       : 8
  157. ID in the original source medium         : 4774 (0x12A6)
  158. Format                                   : PGS
  159. Muxing mode                              : zlib
  160. Codec ID                                 : S_HDMV/PGS
  161. Codec ID/Info                            : Picture based subtitle format used on BDs/HD-DVDs
  162. Duration                                 : 1 h 49 min
  163. Bit rate                                 : 64.9 kb/s
  164. Count of elements                        : 2845
  165. Stream size                              : 50.6 MiB (0%)
  166. Title                                    : 繁英特效
  167. Language                                 : Chinese
  168. Default                                  : Yes
  169. Forced                                   : No
  170. Original source medium                   : Blu-ray
  171. Text #6
  172. ID                                       : 9
  173. ID in the original source medium         : 4775 (0x12A7)
  174. Format                                   : PGS
  175. Muxing mode                              : zlib
  176. Codec ID                                 : S_HDMV/PGS
  177. Codec ID/Info                            : Picture based subtitle format used on BDs/HD-DVDs
  178. Duration                                 : 1 h 49 min
  179. Bit rate                                 : 43.7 kb/s
  180. Count of elements                        : 3124
  181. Stream size                              : 34.1 MiB (0%)
  182. Title                                    : 国语特效
  183. Language                                 : Chinese
  184. Default                                  : Yes
  185. Forced                                   : No
  186. Original source medium                   : Blu-ray
  187. Menu
  188. 00:00:00.000                             : en:第 01 章
  189. 00:09:46.335                             : en:第 02 章
  190. 00:16:54.303                             : en:第 03 章
  191. 00:25:52.092                             : en:第 04 章
  192. 00:32:45.212                             : en:第 05 章
  193. 00:37:26.202                             : en:第 06 章
  194. 00:45:49.538                             : en:第 07 章
  195. 00:53:31.458                             : en:第 08 章
  196. 00:58:18.244                             : en:第 09 章
  197. 01:07:21.161                             : en:第 10 章
  198. 01:13:46.712                             : en:第 11 章
  199. 01:19:51.036                             : en:第 12 章
  200. 01:26:40.235                             : en:第 13 章
  201. 01:33:12.127                             : en:第 14 章
  202. 01:40:24.059                             : en:第 15 章
  203. 01:46:18.872                             : en:第 16 章



此处一般会放置磁力链或种子下载链接,不过此链接需要注册会员才能看到,点击“立即注册”
磁力链下载【下载链接仅对注册会员开放,登陆后可见】
BT9527电影天堂 1、BT9527电影天堂提供的BT文件均来源于互联网抓取,只供网友学习交流、技术提升使用。
2、我们遵守BitTorrent点对点协议原则,任何版权问题请联系原资源发布商,我们不处理任何版权纠纷,谢谢!如有争议请联系邮箱:BT9527#hotmail.com(#换成@)
3、如果您发现某页面或地址有错误,请联系站长邮箱BT9527#hotmail.com(#换成@),我们会尽快处理。您的热心是对BT9527电影天堂最大的支持。
4、本站建议去正规影院观看电影以支持电影行业发展。
最新回复 (0)

你可以在 登录 or 注册 后,对此帖发表评论!

返回
发新帖