野鹅敢死队[国英多音轨/简繁字幕].The.Wild.Geese.1978.BluRay.1080p.x265.10bit.3Audio-MiniHD 12.48GB

版主小s 17天前 152

✔资源类型:暂未分类   ✔电影年份:更 早   ✔电影地区:欧美   ✔电影分类:剧情

◎译  名 野鹅敢死队 / 野雁突击队
◎片  名 The Wild Geese
◎年  代 1978
◎产  地 英国 / 瑞士
◎类  别 剧情 / 动作 / 战争 / 冒险
◎语  言 英语
◎上映日期 1986-03(中国大陆) / 1978-08-07(英国)
◎IMDb链接 https://www.imdb.com/title/tt0078492/
◎豆瓣评分 8.1/10 (6947人评价)
◎豆瓣链接 https://movie.douban.com/subject/1304730/
◎片  长 134 分钟
◎导  演 安德鲁·麦克拉格伦 Andrew V. McLaglen (id:1025365)
◎编  剧 雷金纳德·罗斯 Reginald Rose (id:1037133)
◎演  员 理查德·伯顿 Richard Burton (id:1041147)
       罗杰·摩尔 Roger Moore (id:1027840)
       理查德·哈里斯 Richard Harris (id:1027172)
       哈迪·克鲁格 Hardy Krüger (id:1002808)
       斯图尔特·格兰杰 Stewart Granger (id:1048200)
       肯·甘普 Ken Gampu (id:1098307)
       简·希尔顿 Jane Hylton (id:1112697)
       George Leech George Leech (id:1112950)
       瓦莱丽·莱昂 Valerie Leon (id:1115530)
       特伦斯·朗登 Terence Longdon (id:1117751)
       Winston Ntshona Winston Ntshona (id:1129161)
       莱斯利·斯科菲尔德 Leslie Schofield (id:1140431)
       鲍勃·西蒙斯 Bob Simmons (id:1142461)
       布鲁克·威廉姆斯 Brook Williams (id:1160720)
       杰克·沃森 Jack Watson (id:1162334)
       保罗·斯珀里尔 Paul Spurrier (id:1019566)
       Fats Bookholane Fats Bookholane (id:1278963)
       约翰·卡尼 John Kani (id:1357828)
       大卫·莱德 David Ladd (id:1004957)
       珀西·赫伯特 Percy Herbert (id:1094702)
       帕特里克·霍尔特 Patrick Holt (id:1092769)
       肯尼思·格里菲思 Kenneth Griffith (id:1028145)
       巴里·福斯特 Barry Foster (id:1025397)
       帕特里克·艾伦 Patrick Allen (id:1057774)
       约翰·安德逊 John Alderson (id:1059651)
       Anna Bergman Anna Bergman (id:1064853)
       弗兰克·芬莱 Frank Finlay (id:1025352)
       罗伯特·坎宁安 Robert Cunningham (id:1072750)
       Suzanne Danielle Suzanne Danielle (id:1075469)
       杰夫·科里 Jeff Corey (id:1025313)
       罗纳德·弗雷泽 Ronald Fraser (id:1089018)
       杨成纯 Chengchun Yang (id:1417706)
       尤恩·劳埃德 Euan Lloyd (id:1038107)
       Roy Budd Roy Budd (id:1033063)
       杰克·希尔德亚德 Jack Hildyard (id:1033673)
       约翰·格兰 John Glen (id:1045308)
       Simon Wakefield Simon Wakefield (id:1300282)
       罗恩·伯克利 Ron Berkeley (id:1278457)
       保罗·恩杰伦 Paul Engelen (id:1087830)
       Derek Cracknell Derek Cracknell (id:1072748)
       约翰·格兰 John Glen (id:1045308)

◎简  介
  福克纳上校(理查德·伯顿 Richard Burton 饰)受雇于著名银行家爱德华爵士(斯图尔特·格兰杰 Stewart Granger 饰),要去解救非洲自由斗士林班尼(Winston Ntshona 饰),然而,私下里,爱德华爵士和独裁者切恩有一个秘密的交易,要以林班尼来交换非洲某国的铜矿开采权。                                    
                                被蒙在鼓里的福克纳上校召集了昔日战友,组建了一支战斗力极强的敢死队,命名为野鹅敢死队,在经过了一系列紧张的训练后,一行人踌躇满志地踏上了他们的“战场”。在成功解救林班尼,准备撤离之时,福克纳上校却发现他们被本来该来接应的运输机放了鸽子。聪明的福克纳上校很快就明白了究竟发生了什么,现在最重要的,就是生存下去。
  1. ##### MediaInfo ######
  2. General
  3. Unique ID                                : 252215148929309089340077599379989349623 (0xBDBEDEEB1E02FEA08B500D0A8A7E44F7)
  4. Complete name                            : The.Wild.Geese.1978.BluRay.1080p.x265.10bit.3Audio-MiniHD.mkv
  5. Format                                   : Matroska
  6. Format version                           : Version 4
  7. File size                                : 12.5 GiB
  8. Duration                                 : 2 h 14 min
  9. Overall bit rate                         : 13.3 Mb/s
  10. Encoded date                             : UTC 2017-11-29 07:46:59
  11. Writing application                      : mkvmerge v16.0.0 ('Protest') 32-bit
  12. Writing library                          : libebml v1.3.5 + libmatroska v1.4.8
  13. Video
  14. ID                                       : 3
  15. Format                                   : HEVC
  16. Format/Info                              : High Efficiency Video Coding
  17. Format profile                           : Main 10@L4@Main
  18. Codec ID                                 : V_MPEGH/ISO/HEVC
  19. Duration                                 : 2 h 14 min
  20. Bit rate                                 : 11.6 Mb/s
  21. Width                                    : 1 920 pixels
  22. Height                                   : 1 030 pixels
  23. Display aspect ratio                     : 1.85:1
  24. Frame rate mode                          : Constant
  25. Frame rate                               : 23.976 (24000/1001/53354) FPS
  26. Color space                              : YUV
  27. Chroma subsampling                       : 4:2:0
  28. Bit depth                                : 10 bits
  29. Bits/(Pixel*Frame)                       : 0.244
  30. Stream size                              : 10.9 GiB (87%)
  31. Writing library                          : x265 2.5+2-18fa144d453e:[Windows][GCC 7.1.0][64 bit] 10bit
  32. Encoding settings                        : cpuid=533541173503 / frame-threads=3 / numa-pools=8 / wpp / no-pmode / no-pme / no-psnr / no-ssim / log-level=2 / input-csp=1 / input-res=1920x1030 / interlace=0 / total-frames=193400 / level-idc=0 / high-tier=1 / uhd-bd=0 / ref=5 / no-allow-non-conformance / no-repeat-headers / annexb / no-aud / no-hrd / info / hash=0 / no-temporal-layers / no-open-gop / min-keyint=1 / keyint=360 / bframes=8 / b-adapt=2 / b-pyramid / bframe-bias=0 / rc-lookahead=40 / lookahead-slices=4 / NTMzNTQ=uuDQuD2mJt9fsCf / scenecut=40 / no-intra-refresh / ctu=32 / min-cu-size=8 / rect / no-amp / max-tu-size=16 / tu-inter-depth=2 / tu-intra-depth=2 / limit-tu=4 / rdoq-level=1 / dynamic-rd=0.00 / ssim-rd / signhide / no-tskip / nr-intra=0 / nr-inter=0 / no-constrained-intra / no-strong-intra-smoothing / max-merge=3 / limit-refs=2 / limit-modes / me=3 / subme=5 / merange=25 / temporal-mvp / weightp / weightb / no-analyze-src-pics / deblock=-1:-1 / no-sao / no-sao-non-deblock / rd=4 / no-early-skip / rskip / no-fast-intra / no-tskip-fast / no-cu-lossless / b-intra / rdpenalty=1 / psy-rd=0.00 / psy-rdoq=3.00 / no-rd-refine / analysis-reuse-mode=0 / no-lossless / cbqpoffs=-2 / crqpoffs=-2 / rc=crf / crf=20.0 / qcomp=0.70 / qpstep=4 / stats-write=0 / stats-read=0 / ipratio=1.40 / pbratio=1.30 / aq-mode=2 / aq-strength=0.80 / cutree / zone-count=0 / no-strict-cbr / qg-size=16 / no-rc-grain / qpmax=69 / qpmin=0 / no-const-vbv / sar=1 / overscan=0 / videoformat=5 / range=0 / colorprim=1 / transfer=2 / colormatrix=2 / chromaloc=0 / display-window=0 / max-cll=0,0 / min-luma=0 / max-luma=1023 / log2-max-poc-lsb=8 / vui-timing-info / vui-hrd-info / slices=1 / opt-qp-pps / opt-ref-list-length-pps / no-multi-pass-opt-rps / scenecut-bias=0.05 / no-opt-cu-delta-qp / no-aq-motion / no-hdr / no-hdr-opt / no-dhdr10-opt / analysis-reuse-level=5 / scale-factor=0 / refine-intra=0 / refine-inter=0 / refine-mv=0 / no-limit-sao / ctu-info=0
  33. Default                                  : Yes
  34. Forced                                   : No
  35. Color range                              : Limited
  36. Color primaries                          : BT.709
  37. Audio #1
  38. ID                                       : 1
  39. Format                                   : AC-3
  40. Format/Info                              : Audio Coding 3
  41. Commercial name                          : Dolby Digital
  42. Codec ID                                 : A_AC3
  43. Duration                                 : 2 h 14 min
  44. Bit rate mode                            : Constant
  45. Bit rate                                 : 640 kb/s
  46. Channel(s)                               : 2 channels
  47. Channel layout                           : L R
  48. Sampling rate                            : 48.0 kHz
  49. Frame rate                               : 31.250 FPS (1536 SPF)
  50. Compression mode                         : Lossy
  51. Stream size                              : 615 MiB (5%)
  52. Title                                    : 英语
  53. Language                                 : English
  54. Service kind                             : Complete Main
  55. Default                                  : No
  56. Forced                                   : No
  57. Audio #2
  58. ID                                       : 2
  59. Format                                   : AC-3
  60. Format/Info                              : Audio Coding 3
  61. Commercial name                          : Dolby Digital
  62. Codec ID                                 : A_AC3
  63. Duration                                 : 2 h 14 min
  64. Bit rate mode                            : Constant
  65. Bit rate                                 : 640 kb/s
  66. Channel(s)                               : 2 channels
  67. Channel layout                           : L R
  68. Sampling rate                            : 48.0 kHz
  69. Frame rate                               : 31.250 FPS (1536 SPF)
  70. Compression mode                         : Lossy
  71. Stream size                              : 615 MiB (5%)
  72. Title                                    : 导演评说
  73. Language                                 : English
  74. Service kind                             : Complete Main
  75. Default                                  : No
  76. Forced                                   : No
  77. Audio #3
  78. ID                                       : 4
  79. Format                                   : AC-3
  80. Format/Info                              : Audio Coding 3
  81. Commercial name                          : Dolby Digital
  82. Codec ID                                 : A_AC3
  83. Duration                                 : 2 h 14 min
  84. Bit rate mode                            : Constant
  85. Bit rate                                 : 192 kb/s
  86. Channel(s)                               : 2 channels
  87. Channel layout                           : L R
  88. Sampling rate                            : 48.0 kHz
  89. Frame rate                               : 31.250 FPS (1536 SPF)
  90. Compression mode                         : Lossy
  91. Stream size                              : 185 MiB (1%)
  92. Title                                    : 国语
  93. Language                                 : Chinese
  94. Service kind                             : Complete Main
  95. Default                                  : Yes
  96. Forced                                   : No
  97. Text #1
  98. ID                                       : 5
  99. Format                                   : PGS
  100. Muxing mode                              : zlib
  101. Codec ID                                 : S_HDMV/PGS
  102. Codec ID/Info                            : Picture based subtitle format used on BDs/HD-DVDs
  103. Title                                    : 简体
  104. Language                                 : Chinese
  105. Default                                  : Yes
  106. Forced                                   : No
  107. Text #2
  108. ID                                       : 6
  109. Format                                   : PGS
  110. Muxing mode                              : zlib
  111. Codec ID                                 : S_HDMV/PGS
  112. Codec ID/Info                            : Picture based subtitle format used on BDs/HD-DVDs
  113. Title                                    : 繁体
  114. Language                                 : Chinese
  115. Default                                  : No
  116. Forced                                   : No
  117. Menu
  118. 00:00:00.000                             : en:Chapter 01
  119. 00:12:51.020                             : en:Chapter 02
  120. 00:28:04.641                             : en:Chapter 03
  121. 00:41:14.638                             : en:Chapter 04
  122. 00:53:37.631                             : en:Chapter 05
  123. 01:09:27.121                             : en:Chapter 06
  124. 01:20:10.013                             : en:Chapter 07
  125. 01:32:35.049                             : en:Chapter 08
  126. 01:41:57.277                             : en:Chapter 09
  127. 01:49:27.018                             : en:Chapter 10
  128. 01:59:11.853                             : en:Chapter 11
  129. 02:12:20.807                             : en:Chapter 12





此处一般会放置磁力链或种子下载链接,不过此链接需要注册会员才能看到,点击“立即注册”
磁力链下载【下载链接仅对注册会员开放,登陆后可见】
BT9527电影天堂 1、BT9527电影天堂提供的BT文件均来源于互联网抓取,只供网友学习交流、技术提升使用。
2、我们遵守BitTorrent点对点协议原则,任何版权问题请联系原资源发布商,我们不处理任何版权纠纷,谢谢!如有争议请联系邮箱:BT9527#hotmail.com(#换成@)
3、如果您发现某页面或地址有错误,请联系站长邮箱BT9527#hotmail.com(#换成@),我们会尽快处理。您的热心是对BT9527电影天堂最大的支持。
4、本站建议去正规影院观看电影以支持电影行业发展。
最新回复 (0)

你可以在 登录 or 注册 后,对此帖发表评论!

返回
发新帖