重返17岁[简繁字幕].Relife.2017.BluRay.1080p.x265.10bit-MiniHD 4.05GB

版主小s 17天前 307

✔资源类型:暂未分类   ✔电影年份:2017   ✔电影地区:日本   ✔电影分类:剧情

◎译  名 重返17岁
◎片  名 ReLIFE
◎年  代 2017
◎产  地 日本
◎类  别 剧情 / 喜剧 / 爱情
◎语  言 日语
◎上映日期 2017-04-15(日本)
◎IMDb链接 https://www.imdb.com/title/tt6121428/
◎豆瓣评分 6.7/10 (4325人评价)
◎豆瓣链接 https://movie.douban.com/subject/26887031/
◎片  长 119分钟
◎导  演 古泽健 Takeshi Furusawa (id:1323009)
◎编  剧 阿相久美子 Kumiko Aso (id:1381809)
       夜宵草 Yayois? (id:1381808)
◎演  员 中川大志 Taishi Nakagawa (id:1316389)
       平祐奈 Yuna Taira (id:1328620)
       高杉真宙 Mahiro Takasugi (id:1317846)
       池田依来沙 Elaiza Ikeda (id:1349142)
       冈崎纱绘 Sae Okazaki (id:1362067)
       千叶雄大 Yudai Chiba (id:1314955)
       市川实日子 Mikako Ichikawa (id:1019576)
       龟田侑树 Yuki Kameda (id:1471189)

◎简  介
  从大学毕业之后,海崎新太(中川大志 饰)进入了公司工作,正式成为了一名社会人。然而,直到此时,新太才意识到,做一名合格的社会人,要比做一名优秀的学生要难得多。三个月之后,新太辞职成为了无业游民。本以为能够找到更好的工作的他,却在求职的道路上屡屡碰壁。就这样,新太既没有工作,也没有可以倾诉的朋友,人生几乎走进了死胡同之中。                                    
                                某日,一位神秘的男子夜明了(千叶雄大 饰)出现在新太的面前,他告诉新太,新太就是他一直在寻找的尼特族,有一个名为“ReLIFE”的计划,可以让新太重新归复社会,哪知道在新太服下了夜明了给他的神秘药物后,竟然重获了17岁时的外貌。
  1. ##### MediaInfo ######
  2. General
  3. Unique ID                                : 199497045095722756778623205126797617394 (0x9615BBB9547EEF7EBA7C3EE45D6168F2)
  4. Complete name                            : Relife.2017.BluRay.1080p.x265.10bit-MiniHD.mkv
  5. Format                                   : Matroska
  6. Format version                           : Version 4
  7. File size                                : 4.05 GiB
  8. Duration                                 : 2 h 0 min
  9. Overall bit rate                         : 4 826 kb/s
  10. Movie name                               : Jubowo @ WiKi
  11. Encoded date                             : UTC 2017-11-13 06:48:24
  12. Writing application                      : mkvmerge v17.0.0 ('Be Ur Friend') 64-bit
  13. Writing library                          : libebml v1.3.5 + libmatroska v1.4.8
  14. Attachments                              : DFPHuaZongW5-B5 1.0.2005.12.28.ttf / 汉仪秀英体繁.ttf
  15. Video
  16. ID                                       : 1
  17. Format                                   : HEVC
  18. Format/Info                              : High Efficiency Video Coding
  19. Format profile                           : Main 10@L4@Main
  20. Codec ID                                 : V_MPEGH/ISO/HEVC
  21. Duration                                 : 2 h 0 min
  22. Bit rate                                 : 4 174 kb/s
  23. Width                                    : 1 920 pixels
  24. Height                                   : 804 pixels
  25. Display aspect ratio                     : 2.40:1
  26. Frame rate mode                          : Constant
  27. Frame rate                               : 23.976 (24000/1001/53354) FPS
  28. Color space                              : YUV
  29. Chroma subsampling                       : 4:2:0
  30. Bit depth                                : 10 bits
  31. Bits/(Pixel*Frame)                       : 0.113
  32. Stream size                              : 3.50 GiB (87%)
  33. Writing library                          : x265 2.5+14-2718cb5dd67f:[Windows][GCC 7.1.0][64 bit] 10bit
  34. Encoding settings                        : cpuid=533541173503 / frame-threads=5 / numa-pools=36 / wpp / no-pmode / no-pme / no-psnr / no-ssim / log-level=2 / csvfn=D:\bdrip\relife2017.log / csv-log-level=0 / input-csp=1 / input-res=1920x804 / interlace=0 / total-frames=172728 / level-idc=0 / high-tier=1 / uhd-bd=0 / ref=5 / no-allow-non-conformance / no-repeat-headers / annexb / no-aud / no-hrd / info / hash=0 / no-temporal-layers / no-open-gop / min-keyint=1 / keyint=360 / bframes=9 / b-adapt=2 / b-pyramid / bframe-bias=0 / rc-lookahead=60 / lookahead-slices=4 / NTMzNTQ=uuDQuD2mJt9fsCf / scenecut=40 / no-intra-refresh / ctu=32 / min-cu-size=8 / no-rect / no-amp / max-tu-size=16 / tu-inter-depth=2 / tu-intra-depth=2 / limit-tu=4 / rdoq-level=2 / dynamic-rd=0.00 / ssim-rd / signhide / no-tskip / nr-intra=0 / nr-inter=0 / no-constrained-intra / no-strong-intra-smoothing / max-merge=3 / limit-refs=2 / limit-modes / me=3 / subme=5 / merange=25 / temporal-mvp / weightp / weightb / no-analyze-src-pics / deblock=-1:-1 / no-sao / no-sao-non-deblock / rd=4 / no-early-skip / no-rskip / no-fast-intra / no-tskip-fast / no-cu-lossless / b-intra / no-splitrd-skip / rdpenalty=1 / psy-rd=0.00 / psy-rdoq=5.00 / no-rd-refine / analysis-reuse-mode=0 / no-lossless / cbqpoffs=-2 / crqpoffs=-2 / rc=crf / crf=17.0 / qcomp=0.65 / qpstep=4 / stats-write=0 / stats-read=0 / ipratio=1.40 / pbratio=1.30 / aq-mode=2 / aq-strength=0.80 / cutree / zone-count=0 / no-strict-cbr / qg-size=16 / no-rc-grain / qpmax=69 / qpmin=0 / no-const-vbv / sar=0 / overscan=0 / videoformat=5 / range=0 / colorprim=1 / transfer=2 / colormatrix=2 / chromaloc=0 / display-window=0 / max-cll=0,0 / min-luma=0 / max-luma=1023 / log2-max-poc-lsb=8 / vui-timing-info / vui-hrd-info / slices=1 / opt-qp-pps / opt-ref-list-length-pps / no-multi-pass-opt-rps / scenecut-bias=0.05 / no-opt-cu-delta-qp / no-aq-motion / no-hdr / no-hdr-opt / no-dhdr10-opt / analysis-reuse-level=5 / scale-factor=0 / refine-intra=0 / refine-inter=0 / refine-mv=0 / no-limit-sao / ctu-info=0
  35. Default                                  : Yes
  36. Forced                                   : No
  37. Color range                              : Limited
  38. Color primaries                          : BT.709
  39. Audio
  40. ID                                       : 2
  41. Format                                   : AC-3
  42. Format/Info                              : Audio Coding 3
  43. Commercial name                          : Dolby Digital
  44. Codec ID                                 : A_AC3
  45. Duration                                 : 2 h 0 min
  46. Bit rate mode                            : Constant
  47. Bit rate                                 : 640 kb/s
  48. Channel(s)                               : 6 channels
  49. Channel layout                           : L R C LFE Ls Rs
  50. Sampling rate                            : 48.0 kHz
  51. Frame rate                               : 31.250 FPS (1536 SPF)
  52. Compression mode                         : Lossy
  53. Stream size                              : 550 MiB (13%)
  54. Title                                    : 日语
  55. Language                                 : Japanese
  56. Service kind                             : Complete Main
  57. Default                                  : Yes
  58. Forced                                   : No
  59. Text #1
  60. ID                                       : 3
  61. Format                                   : ASS
  62. Codec ID                                 : S_TEXT/ASS
  63. Codec ID/Info                            : Advanced Sub Station Alpha
  64. Duration                                 : 1 h 55 min
  65. Bit rate                                 : 69 b/s
  66. Count of elements                        : 1372
  67. Compression mode                         : Lossless
  68. Stream size                              : 58.7 KiB (0%)
  69. Title                                    : 简体
  70. Language                                 : Chinese
  71. Default                                  : Yes
  72. Forced                                   : No
  73. Text #2
  74. ID                                       : 4
  75. Format                                   : ASS
  76. Codec ID                                 : S_TEXT/ASS
  77. Codec ID/Info                            : Advanced Sub Station Alpha
  78. Duration                                 : 1 h 55 min
  79. Bit rate                                 : 69 b/s
  80. Count of elements                        : 1372
  81. Compression mode                         : Lossless
  82. Stream size                              : 58.7 KiB (0%)
  83. Title                                    : 繁体
  84. Language                                 : Chinese
  85. Default                                  : No
  86. Forced                                   : No
  87. Menu
  88. 00:00:00.000                             : en:00:00:00.000
  89. 00:11:25.101                             : en:00:11:25.101
  90. 00:23:11.014                             : en:00:23:11.014
  91. 00:28:56.860                             : en:00:28:56.860
  92. 00:36:31.939                             : en:00:36:31.939
  93. 00:52:10.001                             : en:00:52:10.001
  94. 01:06:25.815                             : en:01:06:25.815
  95. 01:22:09.841                             : en:01:22:09.841
  96. 01:32:08.356                             : en:01:32:08.356
  97. 01:44:39.189                             : en:01:44:39.189
  98. 01:51:28.181                             : en:01:51:28.181
  99. 01:55:56.407                             : en:01:55:56.407
  100. 02:00:03.196                             : en:02:00:03.196





此处一般会放置磁力链或种子下载链接,不过此链接需要注册会员才能看到,点击“立即注册”
磁力链下载【下载链接仅对注册会员开放,登陆后可见】
BT9527电影天堂 1、BT9527电影天堂提供的BT文件均来源于互联网抓取,只供网友学习交流、技术提升使用。
2、我们遵守BitTorrent点对点协议原则,任何版权问题请联系原资源发布商,我们不处理任何版权纠纷,谢谢!如有争议请联系邮箱:BT9527#hotmail.com(#换成@)
3、如果您发现某页面或地址有错误,请联系站长邮箱BT9527#hotmail.com(#换成@),我们会尽快处理。您的热心是对BT9527电影天堂最大的支持。
4、本站建议去正规影院观看电影以支持电影行业发展。
最新回复 (0)

你可以在 登录 or 注册 后,对此帖发表评论!

返回
发新帖