马永贞[国粤英多音轨/简繁英字幕].Ma.Yong.Zhen.1997.BluRay.1080p.LPCM.2.0.3Audio.x265.10bit-CTRLHD 9.56GB

版主小s 17天前 158

✔资源类型:暂未分类   ✔电影年份:更 早   ✔电影地区:香港   ✔电影分类:剧情

◎译  名 马永贞 / Hero
◎片  名 馬永貞
◎年  代 1997
◎产  地 中国香港
◎类  别 剧情 / 动作
◎语  言 粤语
◎上映日期 1997-06-17(中国香港)
◎IMDb链接 https://www.imdb.com/title/tt0136242/
◎豆瓣评分 6.9/10 (9219人评价)
◎豆瓣链接 https://movie.douban.com/subject/1304694/
◎片  长 97分钟
◎导  演 元奎 Corey Yuen (id:1289150)
◎编  剧 刘镇伟 Jeffrey Lau (id:1274431)
◎演  员 金城武 Takeshi Kaneshiro (id:1027883)
       元彪 Biao Yuen (id:1163752)
       宣萱 Jessica Hester Hsuan (id:1023521)
       周嘉玲 Valerie Chow (id:1037015)
       元华 Wah Yuen (id:1050240)
       元奎 Corey Yuen (id:1289150)
       徐光 Guang Xu (id:1323352)
       刘挺 Ting Liu (id:1344794)
       元德 Tak Yuen (id:1287153)
       方逸华 Mona Fong (id:1283933)
       胡伟立 Wai Lap Wu (id:1275249)
       黄英华 Ying-Wah Wong (id:1301204)
       黄百鸣 Raymond Wong (id:1275277)
       刘满棠 Moon-Tong Lau (id:1289492)
       奚杰伟 Kit-Wai Kai (id:1288022)
       杨占家 Zhanjia Yang (id:1301416)
       黎沃 Lai Yu (id:1411067)
       吴里璐 Dora Ng (id:1289270)
       陈永标 Bill Chan (id:1405400)
       元德 Tak Yuen (id:1287153)

◎简  介
  1898年山东大旱,无数难民涌入上海求生,人流中马永贞(金城武 饰)、马大祥(元华 饰)兄弟俩亦来到这片英国人掌控下的东方乐园,二马无技傍身,只好从码头苦力做起。马永贞机缘巧合结识上海码头之王谭四(元彪 饰),并凭借出色身手获得其欣赏。其时谭四与巡捕房支持的杨双连番血战,马永贞遭遇混战,为谭四的一壶春舞厅出手击退强敌,对卖场其中的歌女金铃子(宣萱 饰)一见钟情。谭四感佩马永贞义气,将一壶春和老板娘艳阳天一同赠送之。马永贞遂以一壶春为起点,率众攻占杨双地盘,激起上海滩无数杀伐。马永贞遭遇杨双暗算,命悬一线之际却再遇金铃子……

◎获奖情况 (共1项)
  第34届台北金马影展 (1997)
  金马奖 最佳动作设计(提名)

  1. ##### MediaInfo ######
  2. General
  3. Unique ID                                : 302151842236272288253747003570028840948 (0xE35053FC7DC17DA2DE1EC2CE575887F4)
  4. Complete name                            : Ma.Yong.Zhen.1997.BluRay.1080p.LPCM.2.0.3Audio.x265.10bit-CTRLHD.mkv
  5. Format                                   : Matroska
  6. Format version                           : Version 4
  7. File size                                : 9.56 GiB
  8. Duration                                 : 1 h 32 min
  9. Overall bit rate mode                    : Variable
  10. Overall bit rate                         : 14.8 Mb/s
  11. Encoded date                             : UTC 2022-06-12 14:27:33
  12. Writing application                      : mkvmerge v68.0.0 ('The Curtain') 64-bit
  13. Writing library                          : libebml v1.4.2 + libmatroska v1.6.4
  14. Video
  15. ID                                       : 1
  16. Format                                   : HEVC
  17. Format/Info                              : High Efficiency Video Coding
  18. Format profile                           : Main 10@L5@Main
  19. Codec ID                                 : V_MPEGH/ISO/HEVC
  20. Duration                                 : 1 h 32 min
  21. Bit rate                                 : 7 380 kb/s
  22. Width                                    : 1 920 pixels
  23. Height                                   : 1 034 pixels
  24. Display aspect ratio                     : 1.85:1
  25. Frame rate mode                          : Constant
  26. Frame rate                               : 23.976 (23976/1000/53354) FPS
  27. Color space                              : YUV
  28. Chroma subsampling                       : 4:2:0
  29. Bit depth                                : 10 bits
  30. Bits/(Pixel*Frame)                       : 0.155
  31. Stream size                              : 4.76 GiB (50%)
  32. Writing library                          : x265 2.7+15-b9f5b5d7bf95:[Windows][MSVC 1800][64 bit] 10bit
  33. Encoding settings                        : cpuid=533541173503 / frame-threads=4 / numa-pools=24 / wpp / no-pmode / no-pme / no-psnr / no-ssim / log-level=2 / input-csp=1 / input-res=1920x1034 / interlace=0 / total-frames=0 / level-idc=0 / high-tier=1 / uhd-bd=0 / ref=6 / no-allow-non-conformance / repeat-headers / annexb / no-aud / no-hrd / info / hash=0 / no-temporal-layers / no-open-gop / min-keyint=23 / keyint=250 / gop-lookahead=0 / bframes=8 / b-adapt=2 / b-pyramid / bframe-bias=0 / rc-lookahead=24 / lookahead-slices=6 / NTMzNTQ=uuDQuD2mJt9fsCf / scenecut=40 / radl=0 / no-intra-refresh / ctu=64 / min-cu-size=8 / no-rect / no-amp / max-tu-size=32 / tu-inter-depth=1 / tu-intra-depth=1 / limit-tu=0 / rdoq-level=0 / dynamic-rd=0.00 / no-ssim-rd / signhide / no-tskip / nr-intra=0 / nr-inter=0 / no-constrained-intra / no-strong-intra-smoothing / max-merge=2 / limit-refs=3 / no-limit-modes / me=2 / subme=7 / merange=48 / temporal-mvp / weightp / weightb / no-analyze-src-pics / deblock=0:0 / sao / no-sao-non-deblock / rd=4 / no-early-skip / rskip / no-fast-intra / no-tskip-fast / no-cu-lossless / no-b-intra / no-splitrd-skip / rdpenalty=0 / psy-rd=2.00 / psy-rdoq=0.00 / no-rd-refine / no-lossless / cbqpoffs=0 / crqpoffs=0 / rc=crf / crf=15.0 / qcomp=0.60 / qpstep=4 / stats-write=0 / stats-read=0 / ipratio=1.40 / pbratio=1.30 / aq-mode=3 / aq-strength=1.00 / cutree / zone-count=0 / no-strict-cbr / qg-size=32 / no-rc-grain / qpmax=69 / qpmin=0 / no-const-vbv / sar=0 / overscan=0 / videoformat=5 / range=0 / colorprim=2 / transfer=2 / colormatrix=2 / chromaloc=0 / display-window=0 / max-cll=0,0 / min-luma=0 / max-luma=1023 / log2-max-poc-lsb=8 / vui-timing-info / vui-hrd-info / slices=1 / no-opt-qp-pps / no-opt-ref-list-length-pps / no-multi-pass-opt-rps / scenecut-bias=0.05 / no-opt-cu-delta-qp / aq-motion / no-hdr / no-hdr-opt / no-dhdr10-opt / no-idr-recovery-sei / analysis-reuse-level=5 / scale-factor=0 / refine-intra=0 / refine-inter=0 / refine-mv=0 / no-limit-sao / ctu-info=0 / no-lowpass-dct / refine-mv-type=0 / copy-pic=1 / max-ausize-factor=1.0 / no-dynamic-refine
  34. Default                                  : Yes
  35. Forced                                   : No
  36. Audio #1
  37. ID                                       : 2
  38. Format                                   : PCM
  39. Format settings                          : Little / Signed
  40. Codec ID                                 : A_PCM/INT/LIT
  41. Duration                                 : 1 h 32 min
  42. Bit rate mode                            : Constant
  43. Bit rate                                 : 1 536 kb/s
  44. Channel(s)                               : 2 channels
  45. Sampling rate                            : 48.0 kHz
  46. Frame rate                               : 200.000 FPS (240 SPF)
  47. Bit depth                                : 16 bits
  48. Stream size                              : 1 015 MiB (10%)
  49. Language                                 : English
  50. Default                                  : Yes
  51. Forced                                   : No
  52. Audio #2
  53. ID                                       : 3
  54. Format                                   : PCM
  55. Format settings                          : Little / Signed
  56. Codec ID                                 : A_PCM/INT/LIT
  57. Duration                                 : 1 h 32 min
  58. Bit rate mode                            : Constant
  59. Bit rate                                 : 1 536 kb/s
  60. Channel(s)                               : 2 channels
  61. Sampling rate                            : 48.0 kHz
  62. Frame rate                               : 200.000 FPS (240 SPF)
  63. Bit depth                                : 16 bits
  64. Stream size                              : 1 015 MiB (10%)
  65. Title                                    : Mandarin
  66. Language                                 : Chinese
  67. Default                                  : Yes
  68. Forced                                   : No
  69. Audio #3
  70. ID                                       : 4
  71. Format                                   : PCM
  72. Format settings                          : Little / Signed
  73. Codec ID                                 : A_PCM/INT/LIT
  74. Duration                                 : 1 h 32 min
  75. Bit rate mode                            : Constant
  76. Bit rate                                 : 2 304 kb/s
  77. Channel(s)                               : 2 channels
  78. Sampling rate                            : 48.0 kHz
  79. Frame rate                               : 200.000 FPS (240 SPF)
  80. Bit depth                                : 24 bits
  81. Stream size                              : 1.48 GiB (16%)
  82. Title                                    : Cantonese
  83. Language                                 : Chinese
  84. Default                                  : Yes
  85. Forced                                   : No
  86. Audio #4
  87. ID                                       : 5
  88. Format                                   : DTS XLL
  89. Format/Info                              : Digital Theater Systems
  90. Commercial name                          : DTS-HD Master Audio
  91. Codec ID                                 : A_DTS
  92. Duration                                 : 1 h 32 min
  93. Bit rate mode                            : Variable
  94. Bit rate                                 : 1 984 kb/s
  95. Channel(s)                               : 2 channels
  96. Channel layout                           : L R
  97. Sampling rate                            : 48.0 kHz
  98. Frame rate                               : 93.750 FPS (512 SPF)
  99. Bit depth                                : 24 bits
  100. Compression mode                         : Lossless
  101. Stream size                              : 1.28 GiB (13%)
  102. Title                                    : Mandarin
  103. Language                                 : Chinese
  104. Default                                  : Yes
  105. Forced                                   : No
  106. Text #1
  107. ID                                       : 6
  108. Format                                   : PGS
  109. Muxing mode                              : zlib
  110. Codec ID                                 : S_HDMV/PGS
  111. Codec ID/Info                            : Picture based subtitle format used on BDs/HD-DVDs
  112. Duration                                 : 1 h 30 min
  113. Bit rate                                 : 1 812 b/s
  114. Count of elements                        : 87
  115. Stream size                              : 1.18 MiB (0%)
  116. Language                                 : English
  117. Default                                  : Yes
  118. Forced                                   : No
  119. Text #2
  120. ID                                       : 7
  121. Format                                   : PGS
  122. Muxing mode                              : zlib
  123. Codec ID                                 : S_HDMV/PGS
  124. Codec ID/Info                            : Picture based subtitle format used on BDs/HD-DVDs
  125. Duration                                 : 1 h 30 min
  126. Bit rate                                 : 28.2 kb/s
  127. Count of elements                        : 2626
  128. Stream size                              : 18.3 MiB (0%)
  129. Title                                    : CHS
  130. Language                                 : Chinese
  131. Default                                  : Yes
  132. Forced                                   : No
  133. Text #3
  134. ID                                       : 8
  135. Format                                   : PGS
  136. Muxing mode                              : zlib
  137. Codec ID                                 : S_HDMV/PGS
  138. Codec ID/Info                            : Picture based subtitle format used on BDs/HD-DVDs
  139. Duration                                 : 1 h 30 min
  140. Bit rate                                 : 29.0 kb/s
  141. Count of elements                        : 2626
  142. Stream size                              : 18.8 MiB (0%)
  143. Title                                    : CHT
  144. Language                                 : Chinese
  145. Default                                  : Yes
  146. Forced                                   : No
  147. Text #4
  148. ID                                       : 9
  149. Format                                   : PGS
  150. Muxing mode                              : zlib
  151. Codec ID                                 : S_HDMV/PGS
  152. Codec ID/Info                            : Picture based subtitle format used on BDs/HD-DVDs
  153. Duration                                 : 1 h 30 min
  154. Bit rate                                 : 46.0 kb/s
  155. Count of elements                        : 2626
  156. Stream size                              : 29.8 MiB (0%)
  157. Title                                    : CHS&ENG
  158. Language                                 : Chinese
  159. Default                                  : Yes
  160. Forced                                   : No
  161. Text #5
  162. ID                                       : 10
  163. Format                                   : PGS
  164. Muxing mode                              : zlib
  165. Codec ID                                 : S_HDMV/PGS
  166. Codec ID/Info                            : Picture based subtitle format used on BDs/HD-DVDs
  167. Duration                                 : 1 h 30 min
  168. Bit rate                                 : 46.9 kb/s
  169. Count of elements                        : 2626
  170. Stream size                              : 30.4 MiB (0%)
  171. Title                                    : CHT&ENG
  172. Language                                 : Chinese
  173. Default                                  : Yes
  174. Forced                                   : No
  175. Menu
  176. 00:00:00.000                             : en:第 01 章
  177. 00:10:58.116                             : en:第 02 章
  178. 00:19:41.931                             : en:第 03 章
  179. 00:26:59.493                             : en:第 04 章
  180. 00:37:55.773                             : en:第 05 章
  181. 00:48:49.593                             : en:第 06 章
  182. 01:00:37.968                             : en:第 07 章
  183. 01:09:45.181                             : en:第 08 章
  184. 01:19:43.404                             : en:第 09 章
  185. 01:30:03.189                             : en:第 10 章





此处一般会放置磁力链或种子下载链接,不过此链接需要注册会员才能看到,点击“立即注册”
磁力链下载【下载链接仅对注册会员开放,登陆后可见】
BT9527电影天堂 1、BT9527电影天堂提供的BT文件均来源于互联网抓取,只供网友学习交流、技术提升使用。
2、我们遵守BitTorrent点对点协议原则,任何版权问题请联系原资源发布商,我们不处理任何版权纠纷,谢谢!如有争议请联系邮箱:BT9527#hotmail.com(#换成@)
3、如果您发现某页面或地址有错误,请联系站长邮箱BT9527#hotmail.com(#换成@),我们会尽快处理。您的热心是对BT9527电影天堂最大的支持。
4、本站建议去正规影院观看电影以支持电影行业发展。
最新回复 (0)

你可以在 登录 or 注册 后,对此帖发表评论!

返回
发新帖