奥林匹亚街区[中文字幕].Les.Olympiades.2021.1080p.BluRay.DTS.x265-10bit-ENTHD 6.25GB

版主小s 3月前 163

✔资源类型:暂未分类   ✔电影年份:2021   ✔电影地区:其他   ✔电影分类:剧情

◎译  名 奥林匹亚街区 / 巴黎13区 / Paris, 13th District / 慾巴黎十三區
◎片  名 Les Olympiades
◎年  代 2021
◎产  地 法国
◎类  别 剧情 / 喜剧 / 爱情
◎语  言 法语 / 汉语普通话 / 英语
◎上映日期 2021-07-14(戛纳电影节) / 2021-11-03(法国)
◎IMDb链接 https://www.imdb.com/title/tt12708658/
◎豆瓣评分 7.0/10 (1731人评价)
◎豆瓣链接 https://movie.douban.com/subject/35209755/
◎片  长 109分钟
◎导  演 雅克·欧迪亚 Jacques Audiard (id:1045070)
◎编  剧 雅克·欧迪亚 Jacques Audiard (id:1045070)
       蕾雅·梅西斯 Léa Mysius (id:1340437)
       瑟琳·席安玛 Céline Sciamma (id:1042117)
◎演  员 露西·张 Lucie Zhang (id:1459738)
       马基塔·桑巴 Makita Samba  (id:1467495)
       诺米·梅兰特 Noémie Merlant (id:1353982)
       珍妮·贝丝 Jehnny Beth (id:1409642)
       拉斐尔·奎纳德 Rapha?l Quenard (id:1454552)
       朱尔·本谢特里 Jules Benchetrit (id:1345492)
       让娜·蒂森 Jeanne Disson (id:1320735)
       伊夫·阎 Yves Yan (id:1385556)
       Carl Malapa Carl Malapa (id:1454853)
       帕特里克·格利诺 Patrick Guérineau (id:1325966)
       索玛耶·博库姆 Soumaye Bocoum (id:1411645)
       斯蒂芬·马纳斯 Stephen Manas (id:1461645)
       保罗·圭哈姆 Paul Guilhaume (id:1387655)

◎简  介
  巴黎13区的四位年轻的成年人Emilie、Camille、Nora、Amber,他们是好友,有时也是恋人,并且经常两者结是。四位主演分别为露西·张/Lucie Zhang、马吉塔·桑巴/Makita Samba([贵族动物])、珍妮·贝丝([不可能的爱])、诺米·梅兰特。                                    
                                影片改编自《纽约客》漫画家Adrian Tomine的图文短片小说集《杀戮与死亡(Killing and Dying)》,欧迪亚与[艾娃]导演蕾雅·梅西斯、[燃烧女子的肖像]导演瑟琳·席安玛共同撰写了本片剧本。幕后团队包括:摄影师保罗·圭哈姆([艾娃])、音乐总监Pierre-Marie Dru([我失去了身体]、[安妮特])。                                    
                                Playtime负责影片国际销售,Memento负责该片法国发行。影片目前已进入到拍摄第二周,计划最早于2021年春季发行。

◎获奖情况 (共7项)
  第74届戛纳电影节 (2021)
  主竞赛单元 金棕榈奖(提名)
   └──雅克·欧迪亚 (id:1045070)
  酷儿棕榈奖(提名)
   └──雅克·欧迪亚 (id:1045070)

  第47届法国凯撒电影奖 (2022)
  最佳新人男演员(提名)
   └──马基塔·桑巴 (id:1467495)
  最佳新人女演员(提名)
   └──露西·张 (id:1459738)
  最佳改编剧本(提名)
  最佳摄影(提名)
  最佳原创音乐(提名)

  1. ##### MediaInfo ######
  2. General
  3. Unique ID                                : 192337707872452470637683186426451434625 (0x90B2E525724487298D6AA5DCE9959C81)
  4. Complete name                            : Les.Olympiades.2021.1080p.BluRay.DTS.x265-10bit-ENTHD.mkv
  5. Format                                   : Matroska
  6. Format version                           : Version 4
  7. File size                                : 6.25 GiB
  8. Duration                                 : 1 h 45 min
  9. Overall bit rate                         : 8 485 kb/s
  10. Movie name                               : Les Olympiades 2021 1080p BluRay DTS x265-10bit-HDS
  11. Encoded date                             : UTC 2022-06-13 04:07:43
  12. Writing application                      : mkvmerge v67.0.0 ('Under Stars') 64-bit
  13. Writing library                          : libebml v1.4.2 + libmatroska v1.6.4
  14. Video
  15. ID                                       : 1
  16. Format                                   : HEVC
  17. Format/Info                              : High Efficiency Video Coding
  18. Format profile                           : Main 10@L5.1@High
  19. Codec ID                                 : V_MPEGH/ISO/HEVC
  20. Duration                                 : 1 h 45 min
  21. Bit rate                                 : 6 945 kb/s
  22. Width                                    : 1 920 pixels
  23. Height                                   : 1 036 pixels
  24. Display aspect ratio                     : 1.85:1
  25. Frame rate mode                          : Constant
  26. Frame rate                               : 24.000 FPS
  27. Color space                              : YUV
  28. Chroma subsampling                       : 4:2:0
  29. Bit depth                                : 10 bits
  30. Bits/(Pixel*Frame)                       : 0.145
  31. Stream size                              : 5.11 GiB (82%)
  32. Title                                    : meyu@HDSky
  33. Writing library                          : x265 - H.265/HEVC codec
  34. Default                                  : Yes
  35. Forced                                   : No
  36. Audio
  37. ID                                       : 2
  38. Format                                   : DTS
  39. Format/Info                              : Digital Theater Systems
  40. Codec ID                                 : A_DTS
  41. Duration                                 : 1 h 45 min
  42. Bit rate mode                            : Constant
  43. Bit rate                                 : 1 509 kb/s
  44. Channel(s)                               : 6 channels
  45. Channel layout                           : C L R Ls Rs LFE
  46. Sampling rate                            : 48.0 kHz
  47. Frame rate                               : 93.750 FPS (512 SPF)
  48. Bit depth                                : 24 bits
  49. Compression mode                         : Lossy
  50. Stream size                              : 1.11 GiB (18%)
  51. Title                                    : French
  52. Language                                 : French
  53. Default                                  : Yes
  54. Forced                                   : No
  55. Text #1
  56. ID                                       : 3
  57. Format                                   : PGS
  58. Muxing mode                              : zlib
  59. Codec ID                                 : S_HDMV/PGS
  60. Codec ID/Info                            : Picture based subtitle format used on BDs/HD-DVDs
  61. Duration                                 : 1 h 38 min
  62. Bit rate                                 : 33.3 kb/s
  63. Count of elements                        : 2783
  64. Stream size                              : 23.5 MiB (0%)
  65. Title                                    : CHS
  66. Language                                 : Chinese
  67. Default                                  : Yes
  68. Forced                                   : No
  69. Text #2
  70. ID                                       : 4
  71. Format                                   : PGS
  72. Muxing mode                              : zlib
  73. Codec ID                                 : S_HDMV/PGS
  74. Codec ID/Info                            : Picture based subtitle format used on BDs/HD-DVDs
  75. Duration                                 : 1 h 38 min
  76. Bit rate                                 : 34.0 kb/s
  77. Count of elements                        : 2783
  78. Stream size                              : 24.0 MiB (0%)
  79. Title                                    : CHT
  80. Language                                 : Chinese
  81. Default                                  : Yes
  82. Forced                                   : No
  83. Menu
  84. 00:00:00.000                             : en:第 01 章
  85. 00:18:34.833                             : en:第 02 章
  86. 00:32:00.708                             : en:第 03 章
  87. 00:50:16.667                             : en:第 04 章
  88. 01:10:14.500                             : en:第 05 章
  89. 01:25:29.708                             : en:第 06 章





此处一般会放置磁力链或种子下载链接,不过此链接需要注册会员才能看到,点击“立即注册”
磁力链下载【下载链接仅对注册会员开放,登陆后可见】
BT9527电影天堂 1、BT9527电影天堂提供的BT文件均来源于互联网抓取,只供网友学习交流、技术提升使用。
2、我们遵守BitTorrent点对点协议原则,任何版权问题请联系原资源发布商,我们不处理任何版权纠纷,谢谢!如有争议请联系邮箱:BT9527#hotmail.com(#换成@)
3、如果您发现某页面或地址有错误,请联系站长邮箱BT9527#hotmail.com(#换成@),我们会尽快处理。您的热心是对BT9527电影天堂最大的支持。
4、本站建议去正规影院观看电影以支持电影行业发展。
最新回复 (0)

你可以在 登录 or 注册 后,对此帖发表评论!

返回