逆光飞翔[国语音轨/中英字幕].Touch.of.The.Light.2012.BluRay.1080p.x265.10bit-MiniHD 3.50GB

版主小s 11天前 84

✔资源类型:暂未分类   ✔电影年份:2012   ✔电影地区:台湾   ✔电影分类:剧情

◎译  名 逆光飞翔 / Touch of the Light
◎片  名 逆光飛翔
◎年  代 2012
◎产  地 中国台湾
◎类  别 剧情 / 爱情
◎语  言 汉语普通话
◎上映日期 2013-06-08(中国大陆) / 2012-09-21(中国台湾)
◎IMDb链接 https://www.imdb.com/title/tt2368920/
◎豆瓣评分 8.2/10 (90278人评价)
◎豆瓣链接 https://movie.douban.com/subject/10733376/
◎片  长 107分钟(中国大陆)
◎导  演 张荣吉 Jung-chi Chang (id:1323078)
◎编  剧 李念修 Nyssa Li (id:1325302)
◎演  员 张榕容 Sandrine Pinna (id:1226703)
       黄裕翔 Yu-Siang Huang (id:1324089)
       李烈 Lieh Li (id:1316681)
       许芳宜 Fang-Yi Sheu (id:1327448)
       柯淑勤 Samantha Shu-Chin Ko (id:1320137)
       纳豆 Nadow Lin (id:1314075)
       黄连煜 Ayugo Huang (id:1341185)
       黄采仪 Tsai-yi Huang (id:1327447)
       尹馨 Ivy Yin (id:1011213)
       张怀秋 Harry Chang (id:1325416)
       王家卫 Kar Wai Wong (id:1041024)
       宋岱 Dai Song (id:1395689)
       彭绮华 Jacky Pang Yee Wah (id:1313613)
       温子捷 Wen Tzu-Chieh (id:1341112)
       迪南·道尔 Dylan Doyle (id:1433469)
       李念修 Nyssa Li (id:1325302)
       吴若昀 Jo-Yun Wu (id:1347718)
       彭绮华 Jacky Pang Yee Wah (id:1313613)
       胡定一 Ding-Yi Hu (id:1377240)

◎简  介
  音乐天分超凡的男孩裕翔(黄裕翔饰)弹得一手好琴,却天生失明。他坚持不参加任何比赛,只希望能拥有像普通人一样的生活。他第一次离家北上念书,遇见热爱跳舞却因故被迫放弃梦想的女孩小洁(张榕容饰)。裕翔能“看见”世界上不被旁人看见的美丽,从未放弃过这个世界。他就像一缕温暖的逆光照进了小洁冰冷的内心,而小洁则带领着裕翔经历了他从未尝试过的冒险。两个看似永不会相交的灵魂,却成为彼此遗失的那份力量。两人身后的那道耀眼的逆光,正温暖着、鼓舞着他们向梦想展翅飞翔。                                       
                                    本片改编自真人真事,男主人公黄裕翔本色演出。女主角则由台北电影节、亚太影展双料影后张榕容饰演,两人延续前作的绝佳默契,演绎了一段好友之间互相鼓励、勇敢逐梦的历程。导演张荣吉凭借此片荣获2012年第49届台湾电影金马奖最佳新导演奖,女主角张榕容荣获2012年第49届台湾电影金马奖最佳女主角提名,男主角黄裕翔荣...

◎获奖情况 (共22项)
  第49届台北金马影展 (2012)
  金马奖 最佳女主角(提名)
   └──张榕容 (id:1226703)
  金马奖 最佳新导演
   └──张荣吉 (id:1323078)
  国际影评人费比西奖
   └──张荣吉 (id:1323078)

  第33届香港电影金像奖 (2014)
  最佳两岸华语电影(提名)

  第29届中国电影金鸡奖 (2013)
  最佳女配角(提名)
   └──李烈 (id:1316681)

  第7届亚洲电影大奖 (2013)
  最佳新演员(提名)
   └──黄裕翔 (id:1324089)

  第17届釜山国际电影节 (2012)
  新浪潮奖(提名)
   └──张荣吉 (id:1323078)
  最受观众欢迎大奖
   └──张荣吉 (id:1323078)

  第14届台北电影节 (2012)
  台北电影奖 最佳剧情长片(提名)
   └──张荣吉 (id:1323078)
  台北电影奖 最佳女主角奖
   └──张榕容 (id:1226703)
  台北电影奖 观众票选奖
   └──张荣吉 (id:1323078)
  国际新导演竞赛 观众票选奖
   └──张荣吉 (id:1323078)
  国际新导演竞赛 最佳影片(提名)
   └──张荣吉 (id:1323078)

  第13届华语电影传媒大奖 (2013)
  评审团奖
  最佳电影(提名)
  最佳女主角(提名)
   └──张榕容 (id:1226703)
  最佳女配角
   └──李烈 (id:1316681)
  最佳新导演(提名)
   └──张荣吉 (id:1323078)
  最佳新演员(提名)
   └──黄裕翔 (id:1324089)

  第20届北京大学生电影节 (2013)
  最佳处女作奖(提名)
   └──张荣吉 (id:1323078)

  第4届豆瓣电影鑫像奖 (2014)
  鑫豆单元 最佳影片(华语)(提名)
  鑫豆单元 最佳女演员(华语)(提名)
   └──张榕容 (id:1226703)

  1. ##### MediaInfo ######
  2. General
  3. Unique ID                                : 188662058958321201405278458018007360569 (0x8DEEFDA9C5838DBD864EBF3CBE042439)
  4. Complete name                            : Touch.of.The.Light.2012.BluRay.1080p.x265.10bit-MiniHD.mkv
  5. Format                                   : Matroska
  6. Format version                           : Version 4
  7. File size                                : 3.50 GiB
  8. Duration                                 : 1 h 49 min
  9. Overall bit rate                         : 4 595 kb/s
  10. Encoded date                             : UTC 2017-09-04 11:53:22
  11. Writing application                      : mkvmerge v11.0.0 ('Alive') 64bit
  12. Writing library                          : libebml v1.3.4 + libmatroska v1.4.5
  13. Video
  14. ID                                       : 1
  15. Format                                   : HEVC
  16. Format/Info                              : High Efficiency Video Coding
  17. Codec ID                                 : V_MPEGH/ISO/HEVC
  18. Duration                                 : 1 h 49 min
  19. Bit rate                                 : 3 935 kb/s
  20. Width                                    : 1 920 pixels
  21. Height                                   : 804 pixels
  22. Display aspect ratio                     : 2.40:1
  23. Frame rate mode                          : Constant
  24. Frame rate                               : 24.000 FPS
  25. Bits/(Pixel*Frame)                       : 0.106
  26. Stream size                              : 3.00 GiB (86%)
  27. Default                                  : Yes
  28. Forced                                   : No
  29. Audio
  30. ID                                       : 2
  31. Format                                   : AC-3
  32. Format/Info                              : Audio Coding 3
  33. Commercial name                          : Dolby Digital
  34. Codec ID                                 : A_AC3
  35. Duration                                 : 1 h 49 min
  36. Bit rate mode                            : Constant
  37. Bit rate                                 : 640 kb/s
  38. Channel(s)                               : 6 channels
  39. Channel layout                           : L R C LFE Ls Rs
  40. Sampling rate                            : 48.0 kHz
  41. Frame rate                               : 31.250 FPS (1536 SPF)
  42. Compression mode                         : Lossy
  43. Delay relative to video                  : 1 s 833 ms
  44. Stream size                              : 499 MiB (14%)
  45. Language                                 : Chinese
  46. Service kind                             : Complete Main
  47. Default                                  : Yes
  48. Forced                                   : No
  49. Text #1
  50. ID                                       : 3
  51. Format                                   : PGS
  52. Muxing mode                              : zlib
  53. Codec ID                                 : S_HDMV/PGS
  54. Codec ID/Info                            : Picture based subtitle format used on BDs/HD-DVDs
  55. Duration                                 : 1 h 44 min
  56. Bit rate                                 : 10.2 kb/s
  57. Count of elements                        : 2468
  58. Stream size                              : 7.62 MiB (0%)
  59. Language                                 : Chinese
  60. Default                                  : Yes
  61. Forced                                   : No
  62. Text #2
  63. ID                                       : 4
  64. Format                                   : PGS
  65. Muxing mode                              : zlib
  66. Codec ID                                 : S_HDMV/PGS
  67. Codec ID/Info                            : Picture based subtitle format used on BDs/HD-DVDs
  68. Duration                                 : 1 h 44 min
  69. Bit rate                                 : 8 912 b/s
  70. Count of elements                        : 2468
  71. Stream size                              : 6.68 MiB (0%)
  72. Language                                 : English
  73. Default                                  : No
  74. Forced                                   : No
  75. Menu
  76. 00:00:00.000                             : en:Chapter 01
  77. 00:18:01.000                             : en:Chapter 02
  78. 00:35:07.000                             : en:Chapter 03
  79. 00:53:53.000                             : en:Chapter 04
  80. 01:09:55.000                             : en:Chapter 05
  81. 01:30:01.000                             : en:Chapter 06





此处一般会放置磁力链或种子下载链接,不过此链接需要注册会员才能看到,点击“立即注册”
磁力链下载【下载链接仅对注册会员开放,登陆后可见】
BT9527电影天堂 1、BT9527电影天堂提供的BT文件均来源于互联网抓取,只供网友学习交流、技术提升使用。
2、我们遵守BitTorrent点对点协议原则,任何版权问题请联系原资源发布商,我们不处理任何版权纠纷,谢谢!如有争议请联系邮箱:BT9527#hotmail.com(#换成@)
3、如果您发现某页面或地址有错误,请联系站长邮箱BT9527#hotmail.com(#换成@),我们会尽快处理。您的热心是对BT9527电影天堂最大的支持。
4、本站建议去正规影院观看电影以支持电影行业发展。
最新回复 (0)

你可以在 登录 or 注册 后,对此帖发表评论!

返回
发新帖