人间世事[中文字幕].Les.choses.humaines.2021.BluRay.1080p.FRA.DTS-HD.MA.5.1.x265.10bit-CTRLHD 5.70GB

版主小s 3月前 243

✔资源类型:暂未分类   ✔电影年份:2021   ✔电影地区:其他   ✔电影分类:剧情

◎译  名 人间世事 / The Accusation
◎片  名 Les Choses humaines
◎年  代 2021
◎产  地 法国
◎类  别 剧情
◎语  言 法语
◎上映日期 2021-11-24(法国)
◎IMDb链接 https://www.imdb.com/title/tt13285394/
◎豆瓣链接 https://movie.douban.com/subject/35212084/
◎片  长 138分钟
◎导  演 伊万·阿达勒 Yvan Attal (id:1014087)
◎编  剧 伊万·阿达勒 Yvan Attal (id:1014087)
◎演  员 本·阿塔尔 Ben Attal (id:1441233)
       夏洛特·甘斯布 Charlotte Gainsbourg (id:1054522)

◎简  介
  Un jeune homme est accusé d’avoir violé une jeune femme. Qui est ce jeune homme et qui est cette jeune femme ? Est-il coupable ou est-il innocent ? Est-elle victime ou uniquement dans un désir de vengeance, comme l’affirme l’accusé. N’y a-t-il qu’une seule vérité ? Les choses humaines, interroge le monde contemporain, démonte la mécanique impitoyable de la machine judiciaire et...

◎获奖情况 (共1项)
  第47届法国凯撒电影奖 (2022)
  最佳改编剧本(提名)

  1. ##### MediaInfo ######
  2. General
  3. Unique ID                                : 204385587392333509705007897242283768967 (0x99C33B77C048CD86D660D6F40C8B7C87)
  4. Complete name                            : Les.choses.humaines.2021.BluRay.1080p.FRA.DTS-HD.MA.5.1.x265.10bit-CTRLHD.mkv
  5. Format                                   : Matroska
  6. Format version                           : Version 4
  7. File size                                : 5.70 GiB
  8. Duration                                 : 2 h 18 min
  9. Overall bit rate mode                    : Variable
  10. Overall bit rate                         : 5 905 kb/s
  11. Encoded date                             : UTC 2022-06-12 17:27:24
  12. Writing application                      : mkvmerge v68.0.0 ('The Curtain') 64-bit
  13. Writing library                          : libebml v1.4.2 + libmatroska v1.6.4
  14. Video
  15. ID                                       : 1
  16. Format                                   : HEVC
  17. Format/Info                              : High Efficiency Video Coding
  18. Format profile                           : Main 10@L5.1@High
  19. Codec ID                                 : V_MPEGH/ISO/HEVC
  20. Duration                                 : 2 h 18 min
  21. Bit rate                                 : 3 496 kb/s
  22. Width                                    : 1 920 pixels
  23. Height                                   : 798 pixels
  24. Display aspect ratio                     : 2.40:1
  25. Frame rate mode                          : Constant
  26. Frame rate                               : 24.000 FPS
  27. Color space                              : YUV
  28. Chroma subsampling                       : 4:2:0 (Type 2)
  29. Bit depth                                : 10 bits
  30. Bits/(Pixel*Frame)                       : 0.095
  31. Stream size                              : 3.38 GiB (59%)
  32. Writing library                          : x265 3.5+20-17839cc0d:[Windows][GCC 11.2.0][64 bit] 10bit
  33. Encoding settings                        : cpuid=533541111039 / frame-threads=5 / numa-pools=32 / wpp / no-pmode / no-pme / no-psnr / no-ssim / log-level=2 / input-csp=1 / input-res=1920x798 / interlace=0 / total-frames=199131 / level-idc=51 / high-tier=1 / uhd-bd=0 / ref=6 / no-allow-non-conformance / no-repeat-headers / annexb / no-aud / no-eob / no-eos / no-hrd / info / hash=0 / no-temporal-layers / no-open-gop / min-keyint=24 / keyint=250 / gop-lookahead=0 / bframes=14 / b-adapt=2 / b-pyramid / bframe-bias=0 / rc-lookahead=75 / lookahead-slices=5 / NTMzNTQ=uuDQuD2mJt9fsCf / scenecut=40 / no-hist-scenecut / radl=0 / no-splice / no-intra-refresh / ctu=32 / min-cu-size=8 / no-rect / no-amp / max-tu-size=32 / tu-inter-depth=1 / tu-intra-depth=1 / limit-tu=0 / rdoq-level=0 / dynamic-rd=0.00 / no-ssim-rd / signhide / no-tskip / nr-intra=0 / nr-inter=0 / no-constrained-intra / no-strong-intra-smoothing / max-merge=3 / limit-refs=1 / no-limit-modes / me=3 / subme=7 / merange=48 / temporal-mvp / no-frame-dup / hme / Level / merange / L0,L1,L2=24,36,48 / weightp / weightb / no-analyze-src-pics / deblock=0:0 / sao / no-sao-non-deblock / rd=4 / selective-sao=4 / early-skip / rskip / no-fast-intra / no-tskip-fast / no-cu-lossless / b-intra / no-splitrd-skip / rdpenalty=2 / psy-rd=2.00 / psy-rdoq=0.00 / no-rd-refine / no-lossless / cbqpoffs=0 / crqpoffs=0 / rc=crf / crf=16.0 / qcomp=0.60 / qpstep=4 / stats-write=0 / stats-read=0 / vbv-maxrate=160000 / vbv-bufsize=160000 / vbv-init=0.9 / min-vbv-fullness=50.0 / max-vbv-fullness=80.0 / crf-max=0.0 / crf-min=0.0 / ipratio=1.40 / pbratio=1.30 / aq-mode=1 / aq-strength=1.00 / cutree / zone-count=0 / no-strict-cbr / qg-size=32 / no-rc-grain / qpmax=69 / qpmin=0 / no-const-vbv / sar=0 / overscan=0 / videoformat=5 / range=0 / colorprim=1 / transfer=1 / colormatrix=1 / chromaloc=1 / chromaloc-top=2 / chromaloc-bottom=2 / display-window=0 / cll=0,0 / min-luma=0 / max-luma=1023 / log2-max-poc-lsb=8 / vui-timing-info / vui-hrd-info / slices=1 / no-opt-qp-pps / no-opt-ref-list-length-pps / no-multi-pass-opt-rps / scenecut-bias=0.05 / hist-threshold=0.03 / no-opt-cu-delta-qp / aq-motion / no-hdr10 / no-hdr10-opt / no-dhdr10-opt / no-idr-recovery-sei / analysis-reuse-level=0 / analysis-save-reuse-level=0 / analysis-load-reuse-level=0 / scale-factor=0 / refine-intra=0 / refine-inter=0 / refine-mv=1 / refine-ctu-distortion=0 / no-limit-sao / ctu-info=0 / no-lowpass-dct / refine-analysis-type=0 / copy-pic=1 / max-ausize-factor=1.0 / no-dynamic-refine / no-single-sei / no-hevc-aq / no-svt / no-field / qp-adaptation-range=1.00 / scenecut-aware-qp=0conformance-window-offsets / right=0 / bottom=0 / NTMzNTQ= / decoder-max-rate=0 / no-vbv-live-multi-pass
  34. Default                                  : Yes
  35. Forced                                   : No
  36. Color range                              : Limited
  37. Color primaries                          : BT.709
  38. Transfer characteristics                 : BT.709
  39. Matrix coefficients                      : BT.709
  40. Audio
  41. ID                                       : 2
  42. Format                                   : DTS XLL
  43. Format/Info                              : Digital Theater Systems
  44. Commercial name                          : DTS-HD Master Audio
  45. Codec ID                                 : A_DTS
  46. Duration                                 : 2 h 18 min
  47. Bit rate mode                            : Variable
  48. Bit rate                                 : 2 323 kb/s
  49. Channel(s)                               : 6 channels
  50. Channel layout                           : C L R Ls Rs LFE
  51. Sampling rate                            : 48.0 kHz
  52. Frame rate                               : 93.750 FPS (512 SPF)
  53. Bit depth                                : 16 bits
  54. Compression mode                         : Lossless
  55. Stream size                              : 2.24 GiB (39%)
  56. Language                                 : French
  57. Default                                  : Yes
  58. Forced                                   : No
  59. Text #1
  60. ID                                       : 3
  61. Format                                   : PGS
  62. Muxing mode                              : zlib
  63. Codec ID                                 : S_HDMV/PGS
  64. Codec ID/Info                            : Picture based subtitle format used on BDs/HD-DVDs
  65. Duration                                 : 2 h 18 min
  66. Bit rate                                 : 35.1 kb/s
  67. Count of elements                        : 4268
  68. Stream size                              : 34.7 MiB (1%)
  69. Language                                 : French
  70. Default                                  : Yes
  71. Forced                                   : No
  72. Text #2
  73. ID                                       : 4
  74. Format                                   : PGS
  75. Muxing mode                              : zlib
  76. Codec ID                                 : S_HDMV/PGS
  77. Codec ID/Info                            : Picture based subtitle format used on BDs/HD-DVDs
  78. Duration                                 : 2 h 11 min
  79. Bit rate                                 : 30.2 kb/s
  80. Count of elements                        : 3840
  81. Stream size                              : 28.4 MiB (0%)
  82. Language                                 : Chinese
  83. Default                                  : Yes
  84. Forced                                   : No
  85. Text #3
  86. ID                                       : 5
  87. Format                                   : PGS
  88. Muxing mode                              : zlib
  89. Codec ID                                 : S_HDMV/PGS
  90. Codec ID/Info                            : Picture based subtitle format used on BDs/HD-DVDs
  91. Duration                                 : 2 h 11 min
  92. Bit rate                                 : 30.9 kb/s
  93. Count of elements                        : 3840
  94. Stream size                              : 29.1 MiB (0%)
  95. Language                                 : Chinese
  96. Default                                  : Yes
  97. Forced                                   : No
  98. Text #4
  99. ID                                       : 6
  100. Format                                   : PGS
  101. Muxing mode                              : zlib
  102. Codec ID                                 : S_HDMV/PGS
  103. Codec ID/Info                            : Picture based subtitle format used on BDs/HD-DVDs
  104. Duration                                 : 2 h 11 min
  105. Bit rate                                 : 49.4 kb/s
  106. Count of elements                        : 3840
  107. Stream size                              : 46.5 MiB (1%)
  108. Language                                 : Chinese
  109. Default                                  : Yes
  110. Forced                                   : No
  111. Text #5
  112. ID                                       : 7
  113. Format                                   : PGS
  114. Muxing mode                              : zlib
  115. Codec ID                                 : S_HDMV/PGS
  116. Codec ID/Info                            : Picture based subtitle format used on BDs/HD-DVDs
  117. Duration                                 : 2 h 11 min
  118. Bit rate                                 : 50.1 kb/s
  119. Count of elements                        : 3840
  120. Stream size                              : 47.2 MiB (1%)
  121. Language                                 : Chinese
  122. Default                                  : Yes
  123. Forced                                   : No
  124. Menu
  125. 00:00:00.000                             : zh:第 01 章
  126. 00:05:41.208                             : zh:第 02 章
  127. 00:19:08.542                             : zh:第 03 章
  128. 00:32:16.000                             : zh:第 04 章
  129. 00:40:48.542                             : zh:第 05 章
  130. 00:52:34.667                             : zh:第 06 章
  131. 01:02:45.500                             : zh:第 07 章
  132. 01:18:17.083                             : zh:第 08 章





此处一般会放置磁力链或种子下载链接,不过此链接需要注册会员才能看到,点击“立即注册”
磁力链下载【下载链接仅对注册会员开放,登陆后可见】
BT9527电影天堂 1、BT9527电影天堂提供的BT文件均来源于互联网抓取,只供网友学习交流、技术提升使用。
2、我们遵守BitTorrent点对点协议原则,任何版权问题请联系原资源发布商,我们不处理任何版权纠纷,谢谢!如有争议请联系邮箱:BT9527#hotmail.com(#换成@)
3、如果您发现某页面或地址有错误,请联系站长邮箱BT9527#hotmail.com(#换成@),我们会尽快处理。您的热心是对BT9527电影天堂最大的支持。
4、本站建议去正规影院观看电影以支持电影行业发展。
最新回复 (0)

你可以在 登录 or 注册 后,对此帖发表评论!

返回
发新帖