逃学威龙2[国语音轨/中英字幕].Fight.Back.to.School.2.1992.BluRay.1080p.x265.10bit.2Audio-MiniHD 6.43GB

版主小s 14天前 52

✔资源类型:暂未分类   ✔电影年份:更 早   ✔电影地区:香港   ✔电影分类:喜剧

◎译  名 逃学威龙2 / Fight Back to School II
◎片  名 逃學威龍2
◎年  代 1992
◎产  地 中国香港
◎类  别 喜剧
◎语  言 粤语
◎上映日期 1992-04-09(中国香港)
◎IMDb链接 https://www.imdb.com/title/tt0105534/
◎豆瓣评分 7.8/10 (181654人评价)
◎豆瓣链接 https://movie.douban.com/subject/1296201/
◎片  长 97分钟
◎导  演 陈嘉上 Gordon Chan (id:1274245)
◎编  剧 阮继志 Kai-Chi Yun (id:1322097)
       陈嘉上 Gordon Chan (id:1274245)
       陈建忠 John Chan Kin-Chung (id:1280427)
◎演  员 周星驰 Stephen Chow (id:1048026)
       张敏 Sharla Cheung (id:1005297)
       吴孟达 Man Tat Ng (id:1016771)
       朱茵 Athena Chu (id:1041734)
       叶德娴 Deanie Ip (id:1016864)
       方保罗 Paul Fonoroff (id:1325637)
       周文健 Michael Chow Man-Kin (id:1317086)
       柯受良 Sau Leung 'Blacky' Ko (id:1315099)
       李丽蕊 Sara Lee (id:1289698)
       蒋文端 Wenduan Jiang (id:1345896)
       陈果 Fruit Chan (id:1000726)
       麦克·里德 Mike Leeder (id:1382791)
       胡立成 Licheng Hu (id:1331134)
       丁家强 Michael Dingo (id:1415763)
       林伟光 Ricky Lam Wai-Kwong (id:1417524)
       英德拉·利奇 Indra Leech (id:1345681)
       陈国邦 Kwok-Pong Chan (id:1280440)
       林尚义 Spencer Lam (id:1042889)
       蒋志光 Chi-Kwong Cheung (id:1315056)
       黄一山 Gabriel Wong (id:1315440)
       林慕德 Mahmood Rumajahn (id:1296324)
       郑兆强 Siu-keung Cheng (id:1280597)
       李健生 Chris Lee (id:1328406)

◎简  介
  周星星(周星驰 饰)圆满完成了校园任务后,以为可以升职,偏偏被调为交通警察。跟他一样立功的曹达华(吴孟达 饰)则继续以卧底的身份在学校内调查国际恐怖组织的案件。他的事业跌到了低谷,就连准备婚礼的钱都是女友阿敏(张敏 饰)的私房钱,令阿星十分无奈。为了证明自己的能力,他决 定以个人的身份到学校协助曹达华,恐怖分子如期行动,双方开始奋战。

◎获奖情况 (共2项)
  第12届香港电影金像奖 (1993)
  最佳女配角(提名)
   └──叶德娴 (id:1016864)
  最佳新演员(提名)
   └──朱茵 (id:1041734)

  1. ##### MediaInfo ######
  2. General
  3. Unique ID                                : 253205987603258948344528063397254605052 (0xBE7DB30968CE11949C0D07EB7D1F28FC)
  4. Complete name                            : Fight.Back.to.School.2.1992.BluRay.1080p.x265.10bit.2Audio-MiniHD.mkv
  5. Format                                   : Matroska
  6. Format version                           : Version 4
  7. File size                                : 6.43 GiB
  8. Duration                                 : 1 h 38 min
  9. Overall bit rate                         : 9 352 kb/s
  10. Encoded date                             : UTC 2017-05-25 12:53:36
  11. Writing application                      : mkvmerge v11.0.0 ('Alive') 64bit
  12. Writing library                          : libebml v1.3.4 + libmatroska v1.4.5
  13. Video
  14. ID                                       : 1
  15. Format                                   : HEVC
  16. Format/Info                              : High Efficiency Video Coding
  17. Codec ID                                 : V_MPEGH/ISO/HEVC
  18. Duration                                 : 1 h 38 min
  19. Bit rate                                 : 8 206 kb/s
  20. Width                                    : 1 920 pixels
  21. Height                                   : 1 080 pixels
  22. Display aspect ratio                     : 16:9
  23. Frame rate mode                          : Constant
  24. Frame rate                               : 24.000 FPS
  25. Bits/(Pixel*Frame)                       : 0.165
  26. Stream size                              : 5.64 GiB (88%)
  27. Default                                  : Yes
  28. Forced                                   : No
  29. Audio #1
  30. ID                                       : 2
  31. Format                                   : AC-3
  32. Format/Info                              : Audio Coding 3
  33. Commercial name                          : Dolby Digital
  34. Codec ID                                 : A_AC3
  35. Duration                                 : 1 h 38 min
  36. Bit rate mode                            : Constant
  37. Bit rate                                 : 320 kb/s
  38. Channel(s)                               : 2 channels
  39. Channel layout                           : L R
  40. Sampling rate                            : 48.0 kHz
  41. Frame rate                               : 31.250 FPS (1536 SPF)
  42. Compression mode                         : Lossy
  43. Stream size                              : 225 MiB (3%)
  44. Language                                 : Chinese
  45. Service kind                             : Complete Main
  46. Default                                  : Yes
  47. Forced                                   : No
  48. Audio #2
  49. ID                                       : 3
  50. Format                                   : AC-3
  51. Format/Info                              : Audio Coding 3
  52. Commercial name                          : Dolby Digital
  53. Codec ID                                 : A_AC3
  54. Duration                                 : 1 h 38 min
  55. Bit rate mode                            : Constant
  56. Bit rate                                 : 640 kb/s
  57. Channel(s)                               : 6 channels
  58. Channel layout                           : L R C LFE Ls Rs
  59. Sampling rate                            : 48.0 kHz
  60. Frame rate                               : 31.250 FPS (1536 SPF)
  61. Compression mode                         : Lossy
  62. Stream size                              : 451 MiB (7%)
  63. Language                                 : Chinese
  64. Service kind                             : Complete Main
  65. Default                                  : No
  66. Forced                                   : No
  67. Text #1
  68. ID                                       : 4
  69. Format                                   : PGS
  70. Muxing mode                              : zlib
  71. Codec ID                                 : S_HDMV/PGS
  72. Codec ID/Info                            : Picture based subtitle format used on BDs/HD-DVDs
  73. Language                                 : Chinese
  74. Default                                  : Yes
  75. Forced                                   : No
  76. Text #2
  77. ID                                       : 5
  78. Format                                   : PGS
  79. Muxing mode                              : zlib
  80. Codec ID                                 : S_HDMV/PGS
  81. Codec ID/Info                            : Picture based subtitle format used on BDs/HD-DVDs
  82. Language                                 : Chinese
  83. Default                                  : No
  84. Forced                                   : No
  85. Text #3
  86. ID                                       : 6
  87. Format                                   : PGS
  88. Muxing mode                              : zlib
  89. Codec ID                                 : S_HDMV/PGS
  90. Codec ID/Info                            : Picture based subtitle format used on BDs/HD-DVDs
  91. Language                                 : English
  92. Default                                  : No
  93. Forced                                   : No
  94. Menu
  95. 00:00:00.000                             : en:Chapter 01
  96. 00:09:19.083                             : en:Chapter 02
  97. 00:15:51.625                             : en:Chapter 03
  98. 00:25:23.458                             : en:Chapter 04
  99. 00:33:02.125                             : en:Chapter 05
  100. 00:41:24.000                             : en:Chapter 06
  101. 00:51:01.958                             : en:Chapter 07
  102. 00:59:23.166                             : en:Chapter 08
  103. 01:06:36.708                             : en:Chapter 09
  104. 01:13:37.958                             : en:Chapter 10
  105. 01:22:44.666                             : en:Chapter 11
  106. 01:30:03.041                             : en:Chapter 12





此处一般会放置磁力链或种子下载链接,不过此链接需要注册会员才能看到,点击“立即注册”
磁力链下载【下载链接仅对注册会员开放,登陆后可见】
BT9527电影天堂 1、BT9527电影天堂提供的BT文件均来源于互联网抓取,只供网友学习交流、技术提升使用。
2、我们遵守BitTorrent点对点协议原则,任何版权问题请联系原资源发布商,我们不处理任何版权纠纷,谢谢!如有争议请联系邮箱:BT9527#hotmail.com(#换成@)
3、如果您发现某页面或地址有错误,请联系站长邮箱BT9527#hotmail.com(#换成@),我们会尽快处理。您的热心是对BT9527电影天堂最大的支持。
4、本站建议去正规影院观看电影以支持电影行业发展。
最新回复 (0)

你可以在 登录 or 注册 后,对此帖发表评论!

返回