逃学威龙[国语音轨/中英字幕].Fight.Back.to.School.1991.BluRay.1080p.x265.10bit.2Audio-MiniHD 5.61GB

版主小s 11天前 55

✔资源类型:暂未分类   ✔电影年份:更 早   ✔电影地区:香港   ✔电影分类:喜剧

◎译  名 逃学威龙 / Fight Back to School
◎片  名 逃學威龍
◎年  代 1991
◎产  地 中国香港
◎类  别 喜剧 / 动作 / 爱情
◎语  言 粤语
◎上映日期 1991-07-18(中国香港)
◎IMDb链接 https://www.imdb.com/title/tt0103045/
◎豆瓣评分 8.1/10 (305088人评价)
◎豆瓣链接 https://movie.douban.com/subject/1302090/
◎片  长 100分钟
◎导  演 陈嘉上 Gordon Chan (id:1274245)
◎编  剧 陈嘉上 Gordon Chan (id:1274245)
       黄炳耀 Barry Wong (id:1014964)
       王晶 Jing Wong (id:1274331)
◎演  员 周星驰 Stephen Chow (id:1048026)
       张敏 Sharla Cheung (id:1005297)
       吴孟达 Man Tat Ng (id:1016771)
       张耀扬 Roy Cheung (id:1012751)
       黄一山 Gabriel Wong (id:1315440)
       秦沛 Paul Chun (id:1048476)
       苑琼丹 King-Tan Yuen (id:1274445)
       陈国新 Dennis Chan (id:1319568)
       尹尚林 Hsiang Lin Yin (id:1406340)
       胡立成 Licheng Hu (id:1331134)
       谢伟杰 Wai-Kit Tse (id:1416431)
       陈文妤 Man-Hiu Chan (id:1418360)
       麦伟章 Wai Cheung Mak (id:1361256)
       曾近荣 Kan-Wing Tsang (id:1329878)
       黄炳耀 Barry Wong (id:1014964)
       黄子扬 Chi Yeung Wong (id:1025832)
       黎彼得 Peter Lai (id:1289269)
       王晶 Jing Wong (id:1274331)
       向华胜 Jimmy Heung (id:1327878)
       向华强 Charles Heung (id:1037691)
       王邦 Jonathon Wong (id:1428606)
       郑兆强 Siu-keung Cheng (id:1280597)
       陈祺合 Ki-hop Chan (id:1280429)
       林超贤 Dante Lam (id:1275075)

◎简  介
  周星星(周星驰 饰)是飞虎队队长,奉命以卧底的身份到圣育强中学寻找警司于参观时被窃的配枪。周星星就算百般无奈还是接受了任务。他很快适应了学校的生活,功夫高强的他也受到了学校众多学生的拥戴,周星星也顺势调查失枪案件。警队的另一位卧底曹达华(吴孟达 饰)也参与了这个案件,最后也与同学一起合力,帮助周星星破获一踪大型军火贩卖案件。

◎获奖情况 (共4项)
  第11届香港电影金像奖 (1992)
  最佳导演(提名)
   └──陈嘉上 (id:1274245)
  最佳编剧(提名)
  最佳男主角(提名)
   └──周星驰 (id:1048026)
  最佳男配角(提名)
   └──吴孟达 (id:1016771)

  1. ##### MediaInfo ######
  2. General
  3. Unique ID                                : 227216633176729953741627411188220715926 (0xAAF054EEDD7412D9957E9D2B49146396)
  4. Complete name                            : Fight.Back.to.School.1991.BluRay.1080p.x265.10bit.2Audio-MiniHD.mkv
  5. Format                                   : Matroska
  6. Format version                           : Version 4
  7. File size                                : 5.60 GiB
  8. Duration                                 : 1 h 40 min
  9. Overall bit rate                         : 7 945 kb/s
  10. Encoded date                             : UTC 2017-05-20 16:11:27
  11. Writing application                      : mkvmerge v11.0.0 ('Alive') 64bit
  12. Writing library                          : libebml v1.3.4 + libmatroska v1.4.5
  13. Video
  14. ID                                       : 1
  15. Format                                   : HEVC
  16. Format/Info                              : High Efficiency Video Coding
  17. Codec ID                                 : V_MPEGH/ISO/HEVC
  18. Duration                                 : 1 h 40 min
  19. Bit rate                                 : 6 827 kb/s
  20. Width                                    : 1 920 pixels
  21. Height                                   : 1 080 pixels
  22. Display aspect ratio                     : 16:9
  23. Frame rate mode                          : Constant
  24. Frame rate                               : 24.000 FPS
  25. Bits/(Pixel*Frame)                       : 0.137
  26. Stream size                              : 4.82 GiB (86%)
  27. Default                                  : Yes
  28. Forced                                   : No
  29. Audio #1
  30. ID                                       : 2
  31. Format                                   : AC-3
  32. Format/Info                              : Audio Coding 3
  33. Commercial name                          : Dolby Digital
  34. Codec ID                                 : A_AC3
  35. Duration                                 : 1 h 40 min
  36. Bit rate mode                            : Constant
  37. Bit rate                                 : 320 kb/s
  38. Channel(s)                               : 2 channels
  39. Channel layout                           : L R
  40. Sampling rate                            : 48.0 kHz
  41. Frame rate                               : 31.250 FPS (1536 SPF)
  42. Compression mode                         : Lossy
  43. Stream size                              : 231 MiB (4%)
  44. Language                                 : Chinese
  45. Service kind                             : Complete Main
  46. Default                                  : Yes
  47. Forced                                   : No
  48. Audio #2
  49. ID                                       : 3
  50. Format                                   : AC-3
  51. Format/Info                              : Audio Coding 3
  52. Commercial name                          : Dolby Digital
  53. Codec ID                                 : A_AC3
  54. Duration                                 : 1 h 40 min
  55. Bit rate mode                            : Constant
  56. Bit rate                                 : 640 kb/s
  57. Channel(s)                               : 6 channels
  58. Channel layout                           : L R C LFE Ls Rs
  59. Sampling rate                            : 48.0 kHz
  60. Frame rate                               : 31.250 FPS (1536 SPF)
  61. Compression mode                         : Lossy
  62. Stream size                              : 462 MiB (8%)
  63. Language                                 : Chinese
  64. Service kind                             : Complete Main
  65. Default                                  : No
  66. Forced                                   : No
  67. Text #1
  68. ID                                       : 4
  69. Format                                   : PGS
  70. Muxing mode                              : zlib
  71. Codec ID                                 : S_HDMV/PGS
  72. Codec ID/Info                            : Picture based subtitle format used on BDs/HD-DVDs
  73. Language                                 : Chinese
  74. Default                                  : Yes
  75. Forced                                   : No
  76. Text #2
  77. ID                                       : 5
  78. Format                                   : PGS
  79. Muxing mode                              : zlib
  80. Codec ID                                 : S_HDMV/PGS
  81. Codec ID/Info                            : Picture based subtitle format used on BDs/HD-DVDs
  82. Language                                 : Chinese
  83. Default                                  : No
  84. Forced                                   : No
  85. Text #3
  86. ID                                       : 6
  87. Format                                   : PGS
  88. Muxing mode                              : zlib
  89. Codec ID                                 : S_HDMV/PGS
  90. Codec ID/Info                            : Picture based subtitle format used on BDs/HD-DVDs
  91. Language                                 : English
  92. Default                                  : No
  93. Forced                                   : No
  94. Menu
  95. 00:00:00.000                             : en:Chapter 01
  96. 00:08:19.416                             : en:Chapter 02
  97. 00:15:17.208                             : en:Chapter 03
  98. 00:25:40.541                             : en:Chapter 04
  99. 00:34:39.000                             : en:Chapter 05
  100. 00:42:29.125                             : en:Chapter 06
  101. 00:48:05.458                             : en:Chapter 07
  102. 00:59:14.666                             : en:Chapter 08
  103. 01:07:54.708                             : en:Chapter 09
  104. 01:15:26.333                             : en:Chapter 10
  105. 01:24:44.166                             : en:Chapter 11
  106. 01:32:57.958                             : en:Chapter 12





此处一般会放置磁力链或种子下载链接,不过此链接需要注册会员才能看到,点击“立即注册”
磁力链下载【下载链接仅对注册会员开放,登陆后可见】
BT9527电影天堂 1、BT9527电影天堂提供的BT文件均来源于互联网抓取,只供网友学习交流、技术提升使用。
2、我们遵守BitTorrent点对点协议原则,任何版权问题请联系原资源发布商,我们不处理任何版权纠纷,谢谢!如有争议请联系邮箱:BT9527#hotmail.com(#换成@)
3、如果您发现某页面或地址有错误,请联系站长邮箱BT9527#hotmail.com(#换成@),我们会尽快处理。您的热心是对BT9527电影天堂最大的支持。
4、本站建议去正规影院观看电影以支持电影行业发展。
最新回复 (0)

你可以在 登录 or 注册 后,对此帖发表评论!

返回
发新帖