出拳吧,妈妈[国语配音/中文字幕].Shallow.2021.2160p.WEB-DL.H265.AAC-CTRLWEB 10.09GB

版主小s 20天前 86

✔资源类型:4K   ✔电影年份:2021   ✔电影地区:大陆   ✔电影分类:剧情

◎译  名 出拳吧,妈妈 / 全心爱你 / 拳心爱你 / Shallow
◎年  代 2021
◎产  地 中国大陆
◎类  别 剧情
◎语  言 汉语普通话
◎上映日期 2022-04-30(中国大陆) / 2021-06-12(上海国际电影节)
◎IMDb链接 https://www.imdb.com/title/tt13611284/
◎豆瓣评分 5.3/10 (1666人评价)
◎豆瓣链接 https://movie.douban.com/subject/35198422/
◎片  长 99分钟(上海国际电影节)
◎导  演 唐晓白 Xiaobai Tang (id:1302644)
◎编  剧 黄苇 Wei Huang (id:1321347)
       吴波 Pepper Wu (id:1330517)
       沈嵘 Rong Shen (id:1355267)
       唐晓白 Xiaobai Tang (id:1302644)
◎演  员 谭卓 Zhuo Tan (id:1312976)
       田雨 Yu Tian (id:1316331)
       田海蓉 Hairong Tian (id:1313584)
       郭唐维 Tangwei Guo (id:1386826)
       赵诗朦 Shimeng Zhao (id:1471141)
       陈明昊 Minghao Chen (id:1362567)
       周强 Chow Keung (id:1336386)
       张信生  (id:1453737)
       米国永  (id:1456306)
       孙宁  (id:1458074)
       李安宁  (id:1458075)
       王嘉琪  (id:1458076)
       陈薇  (id:1458077)
       程晗  (id:1458078)
       王楠  (id:1458079)
       孟柏智  (id:1458080)
       郑载焕  (id:1458081)
       黎耀辉 Yiu-Fai Lai (id:1289265)
       白承勋 Seung-hoon Baek (id:1332065)
       周强 Chow Keung (id:1336386)
       于召锋 Zhaofeng Yu (id:1453738)

◎简  介
  丧到家的人生难道翻盘不出高光时刻了吗?白杨(谭卓 饰)是一个性格倔强、坚守内心原则的年轻妈妈;几年前因一时冲动失去所有、母子分离,孩子被迫交给姐姐(田海蓉 饰)扶养;直到遇见性格奇葩、舌毒心暖的男人沈浩(田雨 饰),在他的帮助下,白杨重新燃起了斗志,痛下决心夺回失去的一切。而前方等着白杨的,却完全超乎了她的想象……

◎获奖情况 (共1项)
  第12届澳门国际电影节 (2020)
  金莲花奖 最佳女配角
   └──田海蓉 (id:1313584)

  1. ##### MediaInfo ######
  2. General
  3. Complete name                            : Shallow.2021.2160p.WEB-DL.H265.AAC-CTRLWEB.mp4
  4. Format                                   : MPEG-4
  5. Format profile                           : Base Media
  6. Codec ID                                 : isom (isom/iso2/mp41)
  7. File size                                : 10.1 GiB
  8. Duration                                 : 1 h 35 min
  9. Overall bit rate mode                    : Variable
  10. Overall bit rate                         : 15.1 Mb/s
  11. Recorded date                            : 2022-06-14T01:45:38.2709304+08:00
  12. Writing application                      : Lavf58.32.104
  13. Video
  14. ID                                       : 1
  15. Format                                   : HEVC
  16. Format/Info                              : High Efficiency Video Coding
  17. Format profile                           : Main@L5@High
  18. Codec ID                                 : hev1
  19. Codec ID/Info                            : High Efficiency Video Coding
  20. Duration                                 : 1 h 35 min
  21. Bit rate                                 : 15.0 Mb/s
  22. Width                                    : 4 096 pixels
  23. Height                                   : 1 716 pixels
  24. Display aspect ratio                     : 2.40:1
  25. Original display aspect ratio            : 2.40:1
  26. Frame rate mode                          : Variable
  27. Frame rate                               : 25.000 FPS
  28. Minimum frame rate                       : 16.667 FPS
  29. Maximum frame rate                       : 46.178 FPS
  30. Color space                              : YUV
  31. Chroma subsampling                       : 4:2:0
  32. Bit depth                                : 8 bits
  33. Bits/(Pixel*Frame)                       : 0.085
  34. Stream size                              : 10.0 GiB (99%)
  35. Codec configuration box                  : hvcC
  36. Audio
  37. ID                                       : 2
  38. Format                                   : AAC LC
  39. Format/Info                              : Advanced Audio Codec Low Complexity
  40. Codec ID                                 : mp4a-40-2
  41. Duration                                 : 1 h 35 min
  42. Bit rate mode                            : Variable
  43. Bit rate                                 : 125 kb/s
  44. Maximum bit rate                         : 134 kb/s
  45. Channel(s)                               : 2 channels
  46. Channel layout                           : L R
  47. Sampling rate                            : 48.0 kHz
  48. Frame rate                               : 46.875 FPS (1024 SPF)
  49. Compression mode                         : Lossy
  50. Stream size                              : 85.5 MiB (1%)
  51. Language                                 : English
  52. Default                                  : Yes
  53. Alternate group                          : 1





此处一般会放置磁力链或种子下载链接,不过此链接需要注册会员才能看到,点击“立即注册”
磁力链下载【下载链接仅对注册会员开放,登陆后可见】
BT9527电影天堂 1、BT9527电影天堂提供的BT文件均来源于互联网抓取,只供网友学习交流、技术提升使用。
2、我们遵守BitTorrent点对点协议原则,任何版权问题请联系原资源发布商,我们不处理任何版权纠纷,谢谢!如有争议请联系邮箱:BT9527#hotmail.com(#换成@)
3、如果您发现某页面或地址有错误,请联系站长邮箱BT9527#hotmail.com(#换成@),我们会尽快处理。您的热心是对BT9527电影天堂最大的支持。
4、本站建议去正规影院观看电影以支持电影行业发展。
最新回复 (0)

你可以在 登录 or 注册 后,对此帖发表评论!

返回
发新帖