小叮当与海盗仙子[中文字幕].The.Pirate.Fairy.2014.BluRay.1080p.DTS-HD.MA.7.1.x265.10bit-CTRLHD 7.74GB

版主小s 3月前 207

✔资源类型:暂未分类   ✔电影年份:2014   ✔电影地区:欧美   ✔电影分类:动作

◎译  名 小叮当与海盗仙子 / 奇妙仙子:海盜仙子 / 廷克·贝尔:海盜仙子 / Tinker Bell and the Pirate Fairy / Tinker Bell and the Quest for the Queen
◎片  名 The Pirate Fairy
◎年  代 2014
◎产  地 美国
◎类  别 动作 / 动画 / 奇幻 / 冒险
◎语  言 英语
◎上映日期 2014-02-14(英国) / 2014-04-01(美国)
◎IMDb链接 https://www.imdb.com/title/tt2483260/
◎豆瓣评分 7.8/10 (7309人评价)
◎豆瓣链接 https://movie.douban.com/subject/20552089/
◎片  长 78分钟
◎导  演 佩吉·霍姆斯 Peggy Holmes (id:1286839)
◎编  剧 杰弗里·M·霍华德 Jeffrey M. Howard (id:1011329)
       凯特·康杜尔 Kate Kondell (id:1334572)
       约翰·拉塞特 John Lasseter (id:1013917)
       佩吉·霍姆斯 Peggy Holmes (id:1286839)
       罗伯茨·甘纳韦 Roberts Gannaway (id:1284475)
       罗娜·库克 Lorna Cook (id:1281200)
       克雷格·格伯 Craig Gerber (id:1284727)
◎演  员 梅·惠特曼 Mae Whitman (id:1017892)
       克里斯蒂娜·亨德里克斯 Christina Hendricks (id:1047880)
       汤姆·希德勒斯顿 Tom Hiddleston (id:1004596)
       刘玉玲 Lucy Liu (id:1036328)
       雷文-西蒙尼 Raven-Symoné (id:1147486)
       梅根·希尔提 Megan Hilty (id:1257696)
       帕梅拉·阿德龙 Pamela Adlon (id:1143044)
       安吉拉·巴蒂斯 Angela Bartys (id:1382350)
       吉姆·卡明斯 Jim Cummings (id:1040525)
       卡洛斯·庞丝 Carlos Ponce (id:1049706)
       米克·温格特 Mick Wingert (id:1204401)
       凯文·迈克尔·理查德森 Kevin Michael Richardson (id:1142715)
       杰夫·贝内特 Jeff Bennett (id:1064239)
       罗伯·鲍森 Rob Paulsen (id:1131038)
       格蕾·德丽斯勒 Grey DeLisle (id:1086522)
       凯瑞·华格伦 Kari Wahlgren (id:1326196)
       简·霍洛克斯 Jane Horrocks (id:1014047)
       杰西·麦卡尼 Jesse McCartney (id:1000066)
       安杰丽卡·休斯顿 Anjelica Huston (id:1010572)

◎简  介
  无忧无虑的精灵谷中央,对一切事物都充满好奇心并勇于挑战新鲜事物的小仙子萨瑞娜(克里斯蒂娜·亨德里克斯 Christina Hendricks 配音),被加利仙子派遣管理仙尘。虽然加利仙子再三告诫她严禁篡改仙尘,但终究无法阻挡萨瑞娜踏足未知领域的渴望。受到批评后,萨瑞娜失落地离开精灵谷。一年后,在小精灵的盛大庆典上,萨瑞娜突然返回,她催眠了会场内绝大部分小精灵,并盗走了珍贵的蓝色仙尘投奔海盗。                                    
                                侥幸逃过一劫的小叮当(梅·惠特曼 Mae Whitman 配音)和伙伴们发现自己的魔法正在流失,为了拯救精灵谷,她们尾随着萨瑞娜踏上新的冒险之旅……
  1. ##### MediaInfo ######
  2. General
  3. Unique ID                                : 25586843551614479464725305620216692695 (0x133FD8C90DD2F388F183FD55973C3FD7)
  4. Complete name                            : The.Pirate.Fairy.2014.BluRay.1080p.DTS-HD.MA.7.1.x265.10bit-CTRLHD.mkv
  5. Format                                   : Matroska
  6. Format version                           : Version 4
  7. File size                                : 7.74 GiB
  8. Duration                                 : 1 h 18 min
  9. Overall bit rate mode                    : Variable
  10. Overall bit rate                         : 14.2 Mb/s
  11. Encoded date                             : UTC 2022-05-25 10:08:38
  12. Writing application                      : mkvmerge v45.0.0 ('Heaven in Pennies') 64-bit
  13. Writing library                          : libebml v1.3.10 + libmatroska v1.5.2
  14. Video
  15. ID                                       : 1
  16. Format                                   : HEVC
  17. Format/Info                              : High Efficiency Video Coding
  18. Format profile                           : Main 10@L5.1@High
  19. Codec ID                                 : V_MPEGH/ISO/HEVC
  20. Duration                                 : 1 h 18 min
  21. Bit rate                                 : 8 629 kb/s
  22. Width                                    : 1 920 pixels
  23. Height                                   : 1 080 pixels
  24. Display aspect ratio                     : 16:9
  25. Frame rate mode                          : Constant
  26. Frame rate                               : 23.976 (24000/1001/53354) FPS
  27. Color space                              : YUV
  28. Chroma subsampling                       : 4:2:0
  29. Bit depth                                : 10 bits
  30. Bits/(Pixel*Frame)                       : 0.174
  31. Stream size                              : 4.71 GiB (61%)
  32. Writing library                          : x265 3.4+24-g6ed1c24a2:[Windows][GCC 10.2.1][64 bit] 10bit
  33. Encoding settings                        : cpuid=533541111039 / frame-threads=3 / numa-pools=12 / wpp / pmode / pme / no-psnr / no-ssim / log-level=2 / input-csp=1 / input-res=1920x1080 / interlace=0 / total-frames=112335 / level-idc=51 / high-tier=1 / uhd-bd=0 / ref=4 / no-allow-non-conformance / repeat-headers / annexb / no-aud / no-hrd / info / hash=0 / no-temporal-layers / no-open-gop / min-keyint=23 / keyint=250 / gop-lookahead=0 / bframes=8 / b-adapt=2 / b-pyramid / bframe-bias=0 / rc-lookahead=60 / lookahead-slices=6 / NTMzNTQ=uuDQuD2mJt9fsCf / scenecut=40 / hist-scenecut=0 / radl=0 / no-splice / no-intra-refresh / ctu=32 / min-cu-size=8 / no-rect / no-amp / max-tu-size=32 / tu-inter-depth=3 / tu-intra-depth=3 / limit-tu=0 / rdoq-level=0 / dynamic-rd=0.00 / no-ssim-rd / signhide / no-tskip / nr-intra=0 / nr-inter=0 / no-constrained-intra / strong-intra-smoothing / max-merge=3 / limit-refs=1 / no-limit-modes / me=2 / subme=5 / merange=48 / temporal-mvp / no-frame-dup / no-hme / weightp / weightb / no-analyze-src-pics / deblock=0:0 / no-sao / no-sao-non-deblock / rd=3 / selective-sao=0 / early-skip / rskip / no-fast-intra / no-tskip-fast / no-cu-lossless / b-intra / no-splitrd-skip / rdpenalty=1 / psy-rd=2.00 / psy-rdoq=0.00 / no-rd-refine / no-lossless / cbqpoffs=0 / crqpoffs=0 / rc=crf / crf=15.5 / qcomp=0.50 / qpstep=4 / stats-write=0 / stats-read=0 / vbv-maxrate=160000 / vbv-bufsize=160000 / vbv-init=0.9 / crf-max=0.0 / crf-min=0.0 / ipratio=1.40 / pbratio=1.20 / aq-mode=2 / aq-strength=0.90 / cutree / zone-count=0 / no-strict-cbr / qg-size=32 / no-rc-grain / qpmax=69 / qpmin=0 / no-const-vbv / sar=0 / overscan=0 / videoformat=5 / range=0 / colorprim=1 / transfer=1 / colormatrix=1 / chromaloc=0 / display-window=0 / cll=0,0 / min-luma=0 / max-luma=1023 / log2-max-poc-lsb=8 / vui-timing-info / vui-hrd-info / slices=1 / no-opt-qp-pps / no-opt-ref-list-length-pps / no-multi-pass-opt-rps / scenecut-bias=0.05 / hist-threshold=0.03 / no-opt-cu-delta-qp / no-aq-motion / no-hdr10 / no-hdr10-opt / no-dhdr10-opt / no-idr-recovery-sei / analysis-reuse-level=0 / analysis-save-reuse-level=0 / analysis-load-reuse-level=0 / scale-factor=0 / refine-intra=0 / refine-inter=0 / refine-mv=1 / refine-ctu-distortion=0 / no-limit-sao / ctu-info=0 / no-lowpass-dct / refine-analysis-type=0 / copy-pic=1 / max-ausize-factor=1.0 / no-dynamic-refine / no-single-sei / no-hevc-aq / no-svt / no-field / qp-adaptation-range=1.00 / no-scenecut-aware-qpconformance-window-offsets / right=0 / bottom=0 / NTMzNTQ= / decoder-max-rate=0 / no-vbv-live-multi-pass
  34. Default                                  : Yes
  35. Forced                                   : No
  36. Color range                              : Limited
  37. Color primaries                          : BT.709
  38. Transfer characteristics                 : BT.709
  39. Matrix coefficients                      : BT.709
  40. Audio
  41. ID                                       : 2
  42. Format                                   : DTS XLL
  43. Format/Info                              : Digital Theater Systems
  44. Commercial name                          : DTS-HD Master Audio
  45. Codec ID                                 : A_DTS
  46. Duration                                 : 1 h 18 min
  47. Bit rate mode                            : Variable
  48. Bit rate                                 : 5 467 kb/s
  49. Channel(s)                               : 8 channels
  50. Channel layout                           : C L R LFE Lb Rb Lss Rss
  51. Sampling rate                            : 48.0 kHz
  52. Frame rate                               : 93.750 FPS (512 SPF)
  53. Bit depth                                : 24 bits
  54. Compression mode                         : Lossless
  55. Stream size                              : 2.98 GiB (39%)
  56. Language                                 : English
  57. Default                                  : Yes
  58. Forced                                   : No
  59. Text #1
  60. ID                                       : 3
  61. Format                                   : PGS
  62. Muxing mode                              : zlib
  63. Codec ID                                 : S_HDMV/PGS
  64. Codec ID/Info                            : Picture based subtitle format used on BDs/HD-DVDs
  65. Duration                                 : 1 h 7 min
  66. Bit rate                                 : 33.4 kb/s
  67. Count of elements                        : 2018
  68. Stream size                              : 16.2 MiB (0%)
  69. Language                                 : English
  70. Default                                  : No
  71. Forced                                   : No
  72. Text #2
  73. ID                                       : 4
  74. Format                                   : PGS
  75. Muxing mode                              : zlib
  76. Codec ID                                 : S_HDMV/PGS
  77. Codec ID/Info                            : Picture based subtitle format used on BDs/HD-DVDs
  78. Duration                                 : 1 h 13 min
  79. Bit rate                                 : 26.9 kb/s
  80. Count of elements                        : 2327
  81. Stream size                              : 14.2 MiB (0%)
  82. Language                                 : Chinese
  83. Default                                  : Yes
  84. Forced                                   : No
  85. Text #3
  86. ID                                       : 5
  87. Format                                   : PGS
  88. Muxing mode                              : zlib
  89. Codec ID                                 : S_HDMV/PGS
  90. Codec ID/Info                            : Picture based subtitle format used on BDs/HD-DVDs
  91. Duration                                 : 1 h 13 min
  92. Bit rate                                 : 28.3 kb/s
  93. Count of elements                        : 2327
  94. Stream size                              : 14.9 MiB (0%)
  95. Language                                 : Chinese
  96. Default                                  : No
  97. Forced                                   : No
  98. Text #4
  99. ID                                       : 6
  100. Format                                   : PGS
  101. Muxing mode                              : zlib
  102. Codec ID                                 : S_HDMV/PGS
  103. Codec ID/Info                            : Picture based subtitle format used on BDs/HD-DVDs
  104. Duration                                 : 1 h 13 min
  105. Bit rate                                 : 47.6 kb/s
  106. Count of elements                        : 2976
  107. Stream size                              : 25.0 MiB (0%)
  108. Language                                 : English
  109. Default                                  : No
  110. Forced                                   : No
  111. Text #5
  112. ID                                       : 7
  113. Format                                   : PGS
  114. Muxing mode                              : zlib
  115. Codec ID                                 : S_HDMV/PGS
  116. Codec ID/Info                            : Picture based subtitle format used on BDs/HD-DVDs
  117. Duration                                 : 1 h 13 min
  118. Bit rate                                 : 47.7 kb/s
  119. Count of elements                        : 2327
  120. Stream size                              : 25.2 MiB (0%)
  121. Language                                 : Chinese
  122. Default                                  : No
  123. Forced                                   : No
  124. Text #6
  125. ID                                       : 8
  126. Format                                   : PGS
  127. Muxing mode                              : zlib
  128. Codec ID                                 : S_HDMV/PGS
  129. Codec ID/Info                            : Picture based subtitle format used on BDs/HD-DVDs
  130. Duration                                 : 1 h 13 min
  131. Bit rate                                 : 49.1 kb/s
  132. Count of elements                        : 2327
  133. Stream size                              : 25.9 MiB (0%)
  134. Language                                 : Chinese
  135. Default                                  : No
  136. Forced                                   : No
  137. Menu
  138. 00:00:00.000                             : en:Chapter 1
  139. 00:04:05.996                             : en:Chapter 2
  140. 00:07:36.665                             : en:Chapter 3
  141. 00:14:32.747                             : en:Chapter 4
  142. 00:20:17.925                             : en:Chapter 5
  143. 00:28:10.814                             : en:Chapter 6
  144. 00:33:03.607                             : en:Chapter 7
  145. 00:40:12.201                             : en:Chapter 8
  146. 00:45:53.334                             : en:Chapter 9
  147. 00:53:51.520                             : en:Chapter 10
  148. 01:03:41.609                             : en:Chapter 11
  149. 01:08:40.742                             : en:Chapter 12





此处一般会放置磁力链或种子下载链接,不过此链接需要注册会员才能看到,点击“立即注册”
磁力链下载【下载链接仅对注册会员开放,登陆后可见】
BT9527电影天堂 1、BT9527电影天堂提供的BT文件均来源于互联网抓取,只供网友学习交流、技术提升使用。
2、我们遵守BitTorrent点对点协议原则,任何版权问题请联系原资源发布商,我们不处理任何版权纠纷,谢谢!如有争议请联系邮箱:BT9527#hotmail.com(#换成@)
3、如果您发现某页面或地址有错误,请联系站长邮箱BT9527#hotmail.com(#换成@),我们会尽快处理。您的热心是对BT9527电影天堂最大的支持。
4、本站建议去正规影院观看电影以支持电影行业发展。
最新回复 (0)

你可以在 登录 or 注册 后,对此帖发表评论!

返回
发新帖