电视台风云[国英多音轨/中英字幕].Network.1976.BluRay.1080p.x265.10bit.2Audio-MiniHD 6.84GB

版主小s 14天前 28

✔资源类型:暂未分类   ✔电影年份:更 早   ✔电影地区:欧美   ✔电影分类:剧情

◎译  名 电视台风云 / 荧光屏后(台) / 萤光幕后 / 传媒 / 电视风云
◎片  名 Network
◎年  代 1976
◎产  地 美国
◎类  别 剧情
◎语  言 英语
◎上映日期 1976-11-27(美国)
◎IMDb链接 https://www.imdb.com/title/tt0074958/
◎豆瓣评分 8.4/10 (10847人评价)
◎豆瓣链接 https://movie.douban.com/subject/1297531/
◎片  长 121分钟
◎导  演 西德尼·吕美特 Sidney Lumet (id:1010627)
◎编  剧 帕迪·查耶夫斯基 Paddy Chayefsky (id:1005089)
◎演  员 费·唐纳薇 Faye Dunaway (id:1013857)
       威廉·霍尔登 William Holden (id:1002737)
       彼得·芬奇 Peter Finch (id:1027350)
       罗伯特·杜瓦尔 Robert Duvall (id:1013776)
       尼德·巴蒂 Ned Beatty (id:1010558)
       比阿特丽斯·斯特雷特 Beatrice Straight (id:1025344)
       肯尼思·基明斯 Kenneth Kimmins (id:1112838)
       肯·克切弗尔 Ken Kercheval (id:1010749)
       康查塔·费雷尔 Conchata Ferrell (id:1056139)
       迈克尔·隆巴德 Michael Lombard (id:1121238)
       达里尔·希克曼 Darryl Hickman (id:1100713)
       萨莎·冯·施勒 Sasha von Scherler (id:1167958)
       罗伊·普尔 Roy Poole (id:1133823)
       威廉·普林斯 William Prince (id:1007195)
       莱恩·史密斯 Lane Smith (id:1048208)
       杰罗姆·邓普西 Jerome Dempsey (id:1081226)
       艾德·克劳利 Ed Crowley (id:1077750)
       玛琳·沃菲尔德 Marlene Warfield (id:1168791)
       韦斯利·阿迪 Wesley Addy (id:1025421)
       乔丹·查尼 Jordan Charney (id:1072000)
       凯西·克朗凯特 Kathy Cronkite (id:1069535)
       弗雷德·斯图斯曼 Fred Stuthman (id:1152847)
       霍华德·戈特弗里德 Howard Gottfried (id:1285221)
       弗雷德·C·卡鲁索 Fred C. Caruso (id:1280211)
       艾略特·劳伦斯 Elliot Lawrence (id:1006632)
       欧文·罗兹曼 Owen Roizman (id:1050597)
       阿兰·海姆 Alan Heim (id:1286367)
       茱莉叶·泰勒 Juliet Taylor (id:1299000)

◎简  介
  妻子的死给电视台王牌主播霍华德(彼得·芬奇 Peter Finch 饰)带来了沉重的打击,使他陷入痛苦和悲伤中无法自拔。电视台决定解雇已经无心工作的霍华德,霍华德的老朋友麦克斯(威廉·霍尔登 William Holden 饰)成为了传达这一噩耗的不二人选。得知自己即将被 解雇,为电视台做牛做马多年的霍华德十分愤怒,在第二天的节目上,他竟然向观众们预告,自己即将进行自杀直播。                                       
                                    霍华德的这一出格举动惹恼了电视台的高层,更让一直对麦克斯心存不满的总裁弗兰克(罗伯特·杜瓦尔 Robert Duvall 饰)发现了找茬的机会。在隔天的新闻直播中,霍华德理应按计划对自己的不慎言行做出道歉,可是恼羞成怒的他却大放厥词,将矛头直指当代美国的种种弊端。女制片人戴安娜(费·唐纳薇 Faye Dunaway 饰)从霍华德的一系列行为中看出了商机,她买通了弗兰克,成为了霍华...

◎获奖情况 (共10项)
  第49届奥斯卡金像奖 (1977)
  最佳影片(提名)
   └──霍华德·戈特弗里德 (id:1285221)
  最佳导演(提名)
   └──西德尼·吕美特 (id:1010627)
  最佳男主角
   └──彼得·芬奇 (id:1027350)
  最佳男主角(提名)
   └──威廉·霍尔登 (id:1002737)
  最佳女主角
   └──费·唐纳薇 (id:1013857)
  最佳男配角(提名)
   └──尼德·巴蒂 (id:1010558)
  最佳女配角
   └──比阿特丽斯·斯特雷特 (id:1025344)
  最佳原创剧本
   └──帕迪·查耶夫斯基 (id:1005089)
  最佳摄影(提名)
   └──欧文·罗兹曼 (id:1050597)
  最佳剪辑(提名)
   └──阿兰·海姆 (id:1286367)

  1. ##### MediaInfo ######
  2. General
  3. Unique ID                                : 228071895518481714061477445509209297232 (0xAB950C9F4453D4E5B8E2A28BB61A9150)
  4. Complete name                            : Network.1976.BluRay.1080p.x265.10bit.2Audio-MiniHD.mkv
  5. Format                                   : Matroska
  6. Format version                           : Version 4
  7. File size                                : 6.84 GiB
  8. Duration                                 : 2 h 1 min
  9. Overall bit rate                         : 8 068 kb/s
  10. Encoded date                             : UTC 2017-08-28 09:46:50
  11. Writing application                      : mkvmerge v11.0.0 ('Alive') 64bit
  12. Writing library                          : libebml v1.3.4 + libmatroska v1.4.5
  13. Video
  14. ID                                       : 1
  15. Format                                   : HEVC
  16. Format/Info                              : High Efficiency Video Coding
  17. Codec ID                                 : V_MPEGH/ISO/HEVC
  18. Duration                                 : 2 h 1 min
  19. Bit rate                                 : 7 538 kb/s
  20. Width                                    : 1 920 pixels
  21. Height                                   : 1 040 pixels
  22. Display aspect ratio                     : 1.85:1
  23. Frame rate mode                          : Constant
  24. Frame rate                               : 23.976 (24000/1001/53354) FPS
  25. Bits/(Pixel*Frame)                       : 0.157
  26. Stream size                              : 6.39 GiB (93%)
  27. Default                                  : Yes
  28. Forced                                   : No
  29. Audio #1
  30. ID                                       : 2
  31. Format                                   : AC-3
  32. Format/Info                              : Audio Coding 3
  33. Commercial name                          : Dolby Digital
  34. Codec ID                                 : A_AC3
  35. Duration                                 : 2 h 1 min
  36. Bit rate mode                            : Constant
  37. Bit rate                                 : 320 kb/s
  38. Channel(s)                               : 1 channel
  39. Channel layout                           : C
  40. Sampling rate                            : 48.0 kHz
  41. Frame rate                               : 31.250 FPS (1536 SPF)
  42. Compression mode                         : Lossy
  43. Stream size                              : 278 MiB (4%)
  44. Language                                 : English
  45. Service kind                             : Complete Main
  46. Default                                  : Yes
  47. Forced                                   : No
  48. Audio #2
  49. ID                                       : 3
  50. Format                                   : AC-3
  51. Format/Info                              : Audio Coding 3
  52. Commercial name                          : Dolby Digital
  53. Codec ID                                 : A_AC3
  54. Duration                                 : 2 h 1 min
  55. Bit rate mode                            : Constant
  56. Bit rate                                 : 128 kb/s
  57. Channel(s)                               : 2 channels
  58. Channel layout                           : L R
  59. Sampling rate                            : 48.0 kHz
  60. Frame rate                               : 31.250 FPS (1536 SPF)
  61. Compression mode                         : Lossy
  62. Delay relative to video                  : 4 ms
  63. Stream size                              : 111 MiB (2%)
  64. Language                                 : Chinese
  65. Service kind                             : Complete Main
  66. Default                                  : No
  67. Forced                                   : No
  68. Text #1
  69. ID                                       : 4
  70. Format                                   : PGS
  71. Muxing mode                              : zlib
  72. Codec ID                                 : S_HDMV/PGS
  73. Codec ID/Info                            : Picture based subtitle format used on BDs/HD-DVDs
  74. Duration                                 : 1 h 59 min
  75. Bit rate                                 : 33.4 kb/s
  76. Count of elements                        : 3116
  77. Stream size                              : 28.5 MiB (0%)
  78. Language                                 : English
  79. Default                                  : Yes
  80. Forced                                   : No
  81. Text #2
  82. ID                                       : 5
  83. Format                                   : PGS
  84. Muxing mode                              : zlib
  85. Codec ID                                 : S_HDMV/PGS
  86. Codec ID/Info                            : Picture based subtitle format used on BDs/HD-DVDs
  87. Duration                                 : 1 h 59 min
  88. Bit rate                                 : 23.6 kb/s
  89. Count of elements                        : 3600
  90. Stream size                              : 20.1 MiB (0%)
  91. Language                                 : Chinese
  92. Default                                  : No
  93. Forced                                   : No
  94. Text #3
  95. ID                                       : 6
  96. Format                                   : PGS
  97. Muxing mode                              : zlib
  98. Codec ID                                 : S_HDMV/PGS
  99. Codec ID/Info                            : Picture based subtitle format used on BDs/HD-DVDs
  100. Duration                                 : 1 h 59 min
  101. Bit rate                                 : 24.5 kb/s
  102. Count of elements                        : 3600
  103. Stream size                              : 20.9 MiB (0%)
  104. Language                                 : Chinese
  105. Default                                  : No
  106. Forced                                   : No
  107. Menu
  108. 00:00:00.000                             : en:Chapter 01
  109. 00:09:42.289                             : en:Chapter 02
  110. 00:19:58.113                             : en:Chapter 03
  111. 00:30:07.846                             : en:Chapter 04
  112. 00:39:25.820                             : en:Chapter 05
  113. 00:52:24.681                             : en:Chapter 06
  114. 01:01:04.452                             : en:Chapter 07
  115. 01:11:56.228                             : en:Chapter 08
  116. 01:21:32.595                             : en:Chapter 09
  117. 01:31:32.737                             : en:Chapter 10
  118. 01:46:35.389                             : en:Chapter 11
  119. 01:52:29.073                             : en:Chapter 12





此处一般会放置磁力链或种子下载链接,不过此链接需要注册会员才能看到,点击“立即注册”
磁力链下载【下载链接仅对注册会员开放,登陆后可见】
BT9527电影天堂 1、BT9527电影天堂提供的BT文件均来源于互联网抓取,只供网友学习交流、技术提升使用。
2、我们遵守BitTorrent点对点协议原则,任何版权问题请联系原资源发布商,我们不处理任何版权纠纷,谢谢!如有争议请联系邮箱:BT9527#hotmail.com(#换成@)
3、如果您发现某页面或地址有错误,请联系站长邮箱BT9527#hotmail.com(#换成@),我们会尽快处理。您的热心是对BT9527电影天堂最大的支持。
4、本站建议去正规影院观看电影以支持电影行业发展。
最新回复 (0)

你可以在 登录 or 注册 后,对此帖发表评论!

返回
发新帖