桃色血案[中文字幕].Anatomy.of.a.Murder.1959.2160p.HDR.UHD.BluRay.DD5.1.x265-10bit-ENTHD 17.02GB

版主小s 17天前 48

✔资源类型:BD-4K   ✔电影年份:更 早   ✔电影地区:欧美   ✔电影分类:剧情

◎译  名 桃色血案 / 一个凶杀案的解析 / 桃色案件
◎片  名 Anatomy of a Murder
◎年  代 1959
◎产  地 美国
◎类  别 剧情 / 悬疑 / 惊悚 / 犯罪
◎语  言 英语
◎上映日期 1959-07-01
◎IMDb链接 https://www.imdb.com/title/tt0052561/
◎豆瓣评分 8.2/10 (6125人评价)
◎豆瓣链接 https://movie.douban.com/subject/1293177/
◎片  长 160分钟
◎导  演 奥托·普雷明格 Otto Preminger (id:1036665)
◎编  剧 温德尔·梅斯 Wendell Mayes (id:1010799)
       John D. Voelker John D. Voelker (id:1010847)
◎演  员 詹姆斯·斯图尔特 James Stewart (id:1048136)
       丽·莱米克 Lee Remick (id:1036580)
       本·戈扎那 Ben Gazzara (id:1049792)
       阿瑟·奥康纳 Arthur O'Connell (id:1002842)
       伊芙·阿登 Eve Arden (id:1048195)
       凯丝琳·格兰特 Kathryn Grant (id:1036799)
       乔治·C·斯科特 George C. Scott (id:1027851)
       奥森·比恩 Orson Bean (id:1009465)
       拉斯·布朗 Russ Brown (id:1069649)
       莫瑞·汉密尔顿 Murray Hamilton (id:1098143)
       Brooks West Brooks West (id:1163132)
       肯·林奇 Ken Lynch (id:1120709)
       约翰奎尔伦 John Qualen (id:1142854)
       霍华德·麦克尼尔 Howard McNear (id:1121414)
       Alexander Campbell Alexander Campbell (id:1029531)
       Ned Wever Ned Wever (id:1169117)
       Jimmy Conlin Jimmy Conlin (id:1078781)
       Royal Beal Royal Beal (id:1066807)
       Joseph Kearns Joseph Kearns (id:1112177)
       James Waters James Waters (id:1168940)
       约瑟夫·N·韦尔奇 Joseph N. Welch (id:1162392)
       艾灵顿公爵 Duke Ellington (id:1085234)
       Irv Kupcinet Irv Kupcinet (id:1109999)
       Del Armstrong Del Armstrong (id:1277407)

◎简  介
  律师贝克正在追查一桩凶杀案,当事人梅森中尉和他那自称被死者强暴的太太对真相有所隐瞒,死者邦尼和他们夫妻俩到底有何秘密?贝克能查到线索,找出事实的真相吗?

◎获奖情况 (共12项)
  第32届奥斯卡金像奖 (1960)
  最佳影片(提名)
   └──奥托·普雷明格 (id:1036665)
  最佳男主角(提名)
   └──詹姆斯·斯图尔特 (id:1048136)
  最佳男配角(提名)
  最佳改编剧本(提名)
   └──温德尔·梅斯 (id:1010799)
  黑白片最佳摄影(提名)
   └──萨姆·利威特 (id:1006079)
  最佳剪辑(提名)
   └──路易斯·莱弗勒 (id:1034142)

  第20届威尼斯电影节 (1959)
  主竞赛单元 金狮奖 (提名)
   └──奥托·普雷明格 (id:1036665)
  沃尔皮杯 最佳男演员
   └──詹姆斯·斯图尔特 (id:1048136)

  第17届金球奖 (1960)
  电影类 最佳剧情片(提名)
  电影类 最佳导演(提名)
   └──奥托·普雷明格 (id:1036665)
  电影类 剧情片最佳女主角(提名)
   └──丽·莱米克 (id:1036580)
  电影类 最佳男配角(提名)
   └──约瑟夫·N·韦尔奇 (id:1162392)

  1. ##### MediaInfo ######
  2. General
  3. Unique ID                                : 115589773024530174334566359928982366126 (0x56F5C7CFB8004DD51EB8306ED53A67AE)
  4. Complete name                            : Anatomy.of.a.Murder.1959.2160p.HDR.UHD.BluRay.DD5.1.x265-10bit-ENTHD.mkv
  5. Format                                   : Matroska
  6. Format version                           : Version 4
  7. File size                                : 17.0 GiB
  8. Duration                                 : 2 h 40 min
  9. Overall bit rate                         : 15.2 Mb/s
  10. Movie name                               : Anatomy of a Murder 1959 2160p HDR UHD BluRay DD5.1 x265-10bit-HDS
  11. Encoded date                             : UTC 2022-06-06 13:32:38
  12. Writing application                      : mkvmerge v67.0.0 ('Under Stars') 64-bit
  13. Writing library                          : libebml v1.4.2 + libmatroska v1.6.4
  14. Video
  15. ID                                       : 1
  16. Format                                   : HEVC
  17. Format/Info                              : High Efficiency Video Coding
  18. Format profile                           : Main 10@L5.1@High
  19. HDR format                               : SMPTE ST 2086, HDR10 compatible
  20. Codec ID                                 : V_MPEGH/ISO/HEVC
  21. Duration                                 : 2 h 40 min
  22. Bit rate                                 : 14.4 Mb/s
  23. Width                                    : 3 840 pixels
  24. Height                                   : 2 076 pixels
  25. Display aspect ratio                     : 1.85:1
  26. Frame rate mode                          : Constant
  27. Frame rate                               : 23.976 (24000/1001/53354) FPS
  28. Color space                              : YUV
  29. Chroma subsampling                       : 4:2:0
  30. Bit depth                                : 10 bits
  31. Bits/(Pixel*Frame)                       : 0.075
  32. Stream size                              : 16.1 GiB (95%)
  33. Title                                    : @HDSky
  34. Writing library                          : x265 - H.265/HEVC codec
  35. Default                                  : Yes
  36. Forced                                   : No
  37. Color range                              : Limited
  38. Color primaries                          : BT.2020
  39. Transfer characteristics                 : PQ
  40. Matrix coefficients                      : BT.2020 non-constant
  41. Mastering display color primaries        : Display P3
  42. Mastering display luminance              : min: 0.0050 cd/m2, max: 4000 cd/m2
  43. Maximum Content Light Level              : 3815 cd/m2
  44. Maximum Frame-Average Light Level        : 30 cd/m2
  45. Audio
  46. ID                                       : 2
  47. Format                                   : AC-3
  48. Format/Info                              : Audio Coding 3
  49. Commercial name                          : Dolby Digital
  50. Codec ID                                 : A_AC3
  51. Duration                                 : 2 h 40 min
  52. Bit rate mode                            : Constant
  53. Bit rate                                 : 640 kb/s
  54. Channel(s)                               : 6 channels
  55. Channel layout                           : L R C LFE Ls Rs
  56. Sampling rate                            : 48.0 kHz
  57. Frame rate                               : 31.250 FPS (1536 SPF)
  58. Compression mode                         : Lossy
  59. Stream size                              : 735 MiB (4%)
  60. Title                                    : English
  61. Language                                 : English
  62. Service kind                             : Complete Main
  63. Default                                  : Yes
  64. Forced                                   : No
  65. Text #1
  66. ID                                       : 3
  67. Format                                   : PGS
  68. Muxing mode                              : zlib
  69. Codec ID                                 : S_HDMV/PGS
  70. Codec ID/Info                            : Picture based subtitle format used on BDs/HD-DVDs
  71. Duration                                 : 2 h 39 min
  72. Bit rate                                 : 64.7 kb/s
  73. Count of elements                        : 5289
  74. Stream size                              : 74.0 MiB (0%)
  75. Title                                    : CHS
  76. Language                                 : Chinese
  77. Default                                  : Yes
  78. Forced                                   : No
  79. Text #2
  80. ID                                       : 4
  81. Format                                   : PGS
  82. Muxing mode                              : zlib
  83. Codec ID                                 : S_HDMV/PGS
  84. Codec ID/Info                            : Picture based subtitle format used on BDs/HD-DVDs
  85. Duration                                 : 2 h 39 min
  86. Bit rate                                 : 66.2 kb/s
  87. Count of elements                        : 5289
  88. Stream size                              : 75.8 MiB (0%)
  89. Title                                    : CHT
  90. Language                                 : Chinese
  91. Default                                  : Yes
  92. Forced                                   : No
  93. Text #3
  94. ID                                       : 5
  95. Format                                   : PGS
  96. Muxing mode                              : zlib
  97. Codec ID                                 : S_HDMV/PGS
  98. Codec ID/Info                            : Picture based subtitle format used on BDs/HD-DVDs
  99. Duration                                 : 2 h 39 min
  100. Bit rate                                 : 101 kb/s
  101. Count of elements                        : 5289
  102. Stream size                              : 116 MiB (1%)
  103. Title                                    : CHS&ENG
  104. Language                                 : Chinese
  105. Default                                  : Yes
  106. Forced                                   : No
  107. Text #4
  108. ID                                       : 6
  109. Format                                   : PGS
  110. Muxing mode                              : zlib
  111. Codec ID                                 : S_HDMV/PGS
  112. Codec ID/Info                            : Picture based subtitle format used on BDs/HD-DVDs
  113. Duration                                 : 2 h 39 min
  114. Bit rate                                 : 103 kb/s
  115. Count of elements                        : 5289
  116. Stream size                              : 117 MiB (1%)
  117. Title                                    : CHT&ENG
  118. Language                                 : Chinese
  119. Default                                  : Yes
  120. Forced                                   : No
  121. Menu
  122. 00:00:00.000                             : en:第 01 章
  123. 00:08:28.257                             : en:第 02 章
  124. 00:14:55.811                             : en:第 03 章
  125. 00:23:56.143                             : en:第 04 章
  126. 00:38:19.547                             : en:第 05 章
  127. 00:47:07.740                             : en:第 06 章
  128. 00:57:56.472                             : en:第 07 章
  129. 01:09:25.828                             : en:第 08 章
  130. 01:16:24.662                             : en:第 09 章
  131. 01:25:18.947                             : en:第 10 章
  132. 01:39:08.399                             : en:第 11 章
  133. 01:48:17.615                             : en:第 12 章
  134. 01:59:22.904                             : en:第 13 章
  135. 02:13:03.225                             : en:第 14 章
  136. 02:21:44.287                             : en:第 15 章
  137. 02:37:45.121                             : en:第 16 章





此处一般会放置磁力链或种子下载链接,不过此链接需要注册会员才能看到,点击“立即注册”
磁力链下载【下载链接仅对注册会员开放,登陆后可见】
BT9527电影天堂 1、BT9527电影天堂提供的BT文件均来源于互联网抓取,只供网友学习交流、技术提升使用。
2、我们遵守BitTorrent点对点协议原则,任何版权问题请联系原资源发布商,我们不处理任何版权纠纷,谢谢!如有争议请联系邮箱:BT9527#hotmail.com(#换成@)
3、如果您发现某页面或地址有错误,请联系站长邮箱BT9527#hotmail.com(#换成@),我们会尽快处理。您的热心是对BT9527电影天堂最大的支持。
4、本站建议去正规影院观看电影以支持电影行业发展。
最新回复 (0)

你可以在 登录 or 注册 后,对此帖发表评论!

返回
发新帖