勇敢的马队:伊沃克人历险记[中文字幕].Caravan.of.Courage.An.Ewok.Adventure.1984.1080p.DSNP.WEB-DL.AAC2.0.H.264-CTRLWEB 3.73GB

版主小s 11天前 28

✔资源类型:WEB-1080P   ✔电影年份:更 早   ✔电影地区:欧美   ✔电影分类:科幻

◎译  名 勇敢的马队:伊沃克人历险记 / 伊渥克大冒险 / The Ewok Adventure
◎片  名 Caravan of Courage: An Ewok Adventure
◎年  代 1984
◎产  地 美国
◎类  别 科幻 / 家庭 / 奇幻 / 冒险
◎语  言 英语
◎上映日期 1984-11-25(美国)
◎IMDb链接 https://www.imdb.com/title/tt0087225/
◎豆瓣链接 https://movie.douban.com/subject/5049385/
◎片  长 97分钟
◎导  演 约翰·科蒂 John Korty (id:1107129)
◎编  剧 乔治·卢卡斯 George Lucas (id:1054507)
◎演  员 Eric Walker Eric Walker (id:1164881)
       沃维克·戴维斯 Warwick Davis (id:1006994)
       菲奥纽拉·弗拉纳根 Fionnula Flanagan (id:1036526)
       盖伊·博伊德 Guy Boyd (id:1073348)
       奥布丽·米勒 Aubree Miller (id:1115622)
       伯尔·艾弗斯 Burl Ives (id:1019152)
       黛比·李·卡林顿 Debbie Lee Carrington (id:1076595)
       托尼·考克斯 Tony Cox (id:1000290)
       凯文·汤普森 Kevin Thompson (id:1382268)
       Sydney Walker Sydney Walker (id:1161705)
       Jon Berg Jon Berg (id:1278407)
       蒂芙妮·布里塞特 Tiffany Brissette (id:1074596)
       Thomas G. Smith Thomas G. Smith (id:1297955)
       John Nutt John Nutt (id:1293336)
       哈雷·杰斯普 Harley Jessup (id:1287721)
       吉姆·丹弗斯 Jim Danforth (id:1281771)
       John McLeod John McLeod (id:1291681)

◎简  介
  Towani一家乘坐的星际巡洋舰在恩多卫星上坠毁了。Towani家的爸爸和妈妈和他们的两个孩子Mace与Cindel失散了。伊渥克族人——恩多卫星上的土著——找到了这两个孩子。尽管孩子们与伊渥克族的交流起初非常困难,Mace和Cindel最终还是说服了伊渥克族人帮助找寻他们的父母。
  1. ##### MediaInfo ######
  2. General
  3. Unique ID                                : 116306439157804356286742543893734764877 (0x577FCE2E086E0D379810F12AFC6A314D)
  4. Complete name                            : Caravan.of.Courage.An.Ewok.Adventure.1984.1080p.DSNP.WEB-DL.AAC2.0.H.264-CTRLWEB.mkv
  5. Format                                   : Matroska
  6. Format version                           : Version 4
  7. File size                                : 3.72 GiB
  8. Duration                                 : 1 h 36 min
  9. Overall bit rate mode                    : Variable
  10. Overall bit rate                         : 5 504 kb/s
  11. Encoded date                             : UTC 2022-06-06 13:50:41
  12. Writing application                      : mkvmerge v65.0.0 ('Too Much') 64-bit
  13. Writing library                          : libebml v1.4.2 + libmatroska v1.6.4
  14. Video
  15. ID                                       : 1
  16. Format                                   : AVC
  17. Format/Info                              : Advanced Video Codec
  18. Format profile                           : High@L4
  19. Format settings                          : CABAC / 4 Ref Frames
  20. Format settings, CABAC                   : Yes
  21. Format settings, Reference frames        : 4 frames
  22. Codec ID                                 : V_MPEG4/ISO/AVC
  23. Duration                                 : 1 h 36 min
  24. Bit rate mode                            : Variable
  25. Bit rate                                 : 5 375 kb/s
  26. Maximum bit rate                         : 12.7 Mb/s
  27. Width                                    : 1 920 pixels
  28. Height                                   : 1 080 pixels
  29. Display aspect ratio                     : 16:9
  30. Frame rate mode                          : Constant
  31. Frame rate                               : 23.976 (24000/1001/53354) FPS
  32. Color space                              : YUV
  33. Chroma subsampling                       : 4:2:0
  34. Bit depth                                : 8 bits
  35. Scan type                                : Progressive
  36. Bits/(Pixel*Frame)                       : 0.108
  37. Stream size                              : 3.64 GiB (98%)
  38. Language                                 : English
  39. Default                                  : Yes
  40. Forced                                   : No
  41. Color range                              : Limited
  42. Color primaries                          : BT.709
  43. Transfer characteristics                 : BT.709
  44. Matrix coefficients                      : BT.709
  45. Audio
  46. ID                                       : 2
  47. Format                                   : AAC LC
  48. Format/Info                              : Advanced Audio Codec Low Complexity
  49. Codec ID                                 : A_AAC-2
  50. Duration                                 : 1 h 36 min
  51. Bit rate                                 : 125 kb/s
  52. Channel(s)                               : 2 channels
  53. Channel layout                           : L R
  54. Sampling rate                            : 48.0 kHz
  55. Frame rate                               : 46.875 FPS (1024 SPF)
  56. Compression mode                         : Lossy
  57. Stream size                              : 86.9 MiB (2%)
  58. Language                                 : English
  59. Default                                  : Yes
  60. Forced                                   : No
  61. Text #1
  62. ID                                       : 3
  63. Format                                   : UTF-8
  64. Codec ID                                 : S_TEXT/UTF8
  65. Codec ID/Info                            : UTF-8 Plain Text
  66. Duration                                 : 1 h 34 min
  67. Bit rate                                 : 27 b/s
  68. Count of elements                        : 763
  69. Stream size                              : 18.7 KiB (0%)
  70. Title                                    : SDH
  71. Language                                 : English
  72. Default                                  : No
  73. Forced                                   : No
  74. Text #2
  75. ID                                       : 4
  76. Format                                   : UTF-8
  77. Codec ID                                 : S_TEXT/UTF8
  78. Codec ID/Info                            : UTF-8 Plain Text
  79. Duration                                 : 1 h 36 min
  80. Bit rate                                 : 19 b/s
  81. Count of elements                        : 526
  82. Stream size                              : 13.4 KiB (0%)
  83. Title                                    : Traditional
  84. Language                                 : Chinese
  85. Default                                  : No
  86. Forced                                   : No
  87. Text #3
  88. ID                                       : 5
  89. Format                                   : UTF-8
  90. Codec ID                                 : S_TEXT/UTF8
  91. Codec ID/Info                            : UTF-8 Plain Text
  92. Duration                                 : 1 h 36 min
  93. Bit rate                                 : 20 b/s
  94. Count of elements                        : 571
  95. Stream size                              : 14.6 KiB (0%)
  96. Language                                 : Czech
  97. Default                                  : No
  98. Forced                                   : No
  99. Text #4
  100. ID                                       : 6
  101. Format                                   : UTF-8
  102. Codec ID                                 : S_TEXT/UTF8
  103. Codec ID/Info                            : UTF-8 Plain Text
  104. Duration                                 : 1 h 36 min
  105. Bit rate                                 : 18 b/s
  106. Count of elements                        : 525
  107. Stream size                              : 12.9 KiB (0%)
  108. Language                                 : Danish
  109. Default                                  : No
  110. Forced                                   : No
  111. Text #5
  112. ID                                       : 7
  113. Format                                   : UTF-8
  114. Codec ID                                 : S_TEXT/UTF8
  115. Codec ID/Info                            : UTF-8 Plain Text
  116. Duration                                 : 1 h 34 min
  117. Bit rate                                 : 24 b/s
  118. Count of elements                        : 555
  119. Stream size                              : 16.9 KiB (0%)
  120. Language                                 : German
  121. Default                                  : No
  122. Forced                                   : No
  123. Text #6
  124. ID                                       : 8
  125. Format                                   : UTF-8
  126. Codec ID                                 : S_TEXT/UTF8
  127. Codec ID/Info                            : UTF-8 Plain Text
  128. Duration                                 : 1 h 34 min
  129. Bit rate                                 : 32 b/s
  130. Count of elements                        : 523
  131. Stream size                              : 22.4 KiB (0%)
  132. Language                                 : Greek
  133. Default                                  : No
  134. Forced                                   : No
  135. Text #7
  136. ID                                       : 9
  137. Format                                   : UTF-8
  138. Codec ID                                 : S_TEXT/UTF8
  139. Codec ID/Info                            : UTF-8 Plain Text
  140. Duration                                 : 1 h 36 min
  141. Bit rate                                 : 19 b/s
  142. Count of elements                        : 524
  143. Stream size                              : 13.7 KiB (0%)
  144. Title                                    : Latin America
  145. Language                                 : Spanish
  146. Default                                  : No
  147. Forced                                   : No
  148. Text #8
  149. ID                                       : 10
  150. Format                                   : UTF-8
  151. Codec ID                                 : S_TEXT/UTF8
  152. Codec ID/Info                            : UTF-8 Plain Text
  153. Duration                                 : 1 h 34 min
  154. Bit rate                                 : 22 b/s
  155. Count of elements                        : 555
  156. Stream size                              : 15.7 KiB (0%)
  157. Language                                 : Spanish
  158. Default                                  : No
  159. Forced                                   : No
  160. Text #9
  161. ID                                       : 11
  162. Format                                   : UTF-8
  163. Codec ID                                 : S_TEXT/UTF8
  164. Codec ID/Info                            : UTF-8 Plain Text
  165. Duration                                 : 1 h 36 min
  166. Bit rate                                 : 18 b/s
  167. Count of elements                        : 524
  168. Stream size                              : 12.8 KiB (0%)
  169. Language                                 : Finnish
  170. Default                                  : No
  171. Forced                                   : No
  172. Text #10
  173. ID                                       : 12
  174. Format                                   : UTF-8
  175. Codec ID                                 : S_TEXT/UTF8
  176. Codec ID/Info                            : UTF-8 Plain Text
  177. Duration                                 : 1 h 34 min
  178. Bit rate                                 : 24 b/s
  179. Count of elements                        : 555
  180. Stream size                              : 17.1 KiB (0%)
  181. Language                                 : French
  182. Default                                  : No
  183. Forced                                   : No
  184. Text #11
  185. ID                                       : 13
  186. Format                                   : UTF-8
  187. Codec ID                                 : S_TEXT/UTF8
  188. Codec ID/Info                            : UTF-8 Plain Text
  189. Duration                                 : 1 h 36 min
  190. Bit rate                                 : 19 b/s
  191. Count of elements                        : 476
  192. Stream size                              : 13.5 KiB (0%)
  193. Language                                 : Hungarian
  194. Default                                  : No
  195. Forced                                   : No
  196. Text #12
  197. ID                                       : 14
  198. Format                                   : UTF-8
  199. Codec ID                                 : S_TEXT/UTF8
  200. Codec ID/Info                            : UTF-8 Plain Text
  201. Duration                                 : 1 h 36 min
  202. Bit rate                                 : 19 b/s
  203. Count of elements                        : 524
  204. Stream size                              : 13.9 KiB (0%)
  205. Language                                 : Italian
  206. Default                                  : No
  207. Forced                                   : No
  208. Text #13
  209. ID                                       : 15
  210. Format                                   : UTF-8
  211. Codec ID                                 : S_TEXT/UTF8
  212. Codec ID/Info                            : UTF-8 Plain Text
  213. Duration                                 : 1 h 36 min
  214. Bit rate                                 : 20 b/s
  215. Count of elements                        : 483
  216. Stream size                              : 14.3 KiB (0%)
  217. Language                                 : Korean
  218. Default                                  : No
  219. Forced                                   : No
  220. Text #14
  221. ID                                       : 16
  222. Format                                   : UTF-8
  223. Codec ID                                 : S_TEXT/UTF8
  224. Codec ID/Info                            : UTF-8 Plain Text
  225. Duration                                 : 1 h 34 min
  226. Bit rate                                 : 18 b/s
  227. Count of elements                        : 486
  228. Stream size                              : 12.5 KiB (0%)
  229. Language                                 : Dutch
  230. Default                                  : No
  231. Forced                                   : No
  232. Text #15
  233. ID                                       : 17
  234. Format                                   : UTF-8
  235. Codec ID                                 : S_TEXT/UTF8
  236. Codec ID/Info                            : UTF-8 Plain Text
  237. Duration                                 : 1 h 36 min
  238. Bit rate                                 : 18 b/s
  239. Count of elements                        : 526
  240. Stream size                              : 13.1 KiB (0%)
  241. Language                                 : Norwegian
  242. Default                                  : No
  243. Forced                                   : No
  244. Text #16
  245. ID                                       : 18
  246. Format                                   : UTF-8
  247. Codec ID                                 : S_TEXT/UTF8
  248. Codec ID/Info                            : UTF-8 Plain Text
  249. Duration                                 : 1 h 34 min
  250. Bit rate                                 : 19 b/s
  251. Count of elements                        : 522
  252. Stream size                              : 13.3 KiB (0%)
  253. Language                                 : Polish
  254. Default                                  : No
  255. Forced                                   : No
  256. Text #17
  257. ID                                       : 19
  258. Format                                   : UTF-8
  259. Codec ID                                 : S_TEXT/UTF8
  260. Codec ID/Info                            : UTF-8 Plain Text
  261. Duration                                 : 1 h 36 min
  262. Bit rate                                 : 18 b/s
  263. Count of elements                        : 524
  264. Stream size                              : 13.4 KiB (0%)
  265. Language                                 : Portuguese
  266. Default                                  : No
  267. Forced                                   : No
  268. Text #18
  269. ID                                       : 20
  270. Format                                   : UTF-8
  271. Codec ID                                 : S_TEXT/UTF8
  272. Codec ID/Info                            : UTF-8 Plain Text
  273. Duration                                 : 1 h 36 min
  274. Bit rate                                 : 19 b/s
  275. Count of elements                        : 525
  276. Stream size                              : 14.0 KiB (0%)
  277. Language                                 : Swedish
  278. Default                                  : No
  279. Forced                                   : No
  280. Text #19
  281. ID                                       : 21
  282. Format                                   : UTF-8
  283. Codec ID                                 : S_TEXT/UTF8
  284. Codec ID/Info                            : UTF-8 Plain Text
  285. Duration                                 : 1 h 34 min
  286. Bit rate                                 : 20 b/s
  287. Count of elements                        : 524
  288. Stream size                              : 14.3 KiB (0%)
  289. Language                                 : Turkish
  290. Default                                  : No
  291. Forced                                   : No





此处一般会放置磁力链或种子下载链接,不过此链接需要注册会员才能看到,点击“立即注册”
磁力链下载【下载链接仅对注册会员开放,登陆后可见】
BT9527电影天堂 1、BT9527电影天堂提供的BT文件均来源于互联网抓取,只供网友学习交流、技术提升使用。
2、我们遵守BitTorrent点对点协议原则,任何版权问题请联系原资源发布商,我们不处理任何版权纠纷,谢谢!如有争议请联系邮箱:BT9527#hotmail.com(#换成@)
3、如果您发现某页面或地址有错误,请联系站长邮箱BT9527#hotmail.com(#换成@),我们会尽快处理。您的热心是对BT9527电影天堂最大的支持。
4、本站建议去正规影院观看电影以支持电影行业发展。
最新回复 (0)

你可以在 登录 or 注册 后,对此帖发表评论!

返回
发新帖