瞬息全宇宙[杜比视界版本][简繁英字幕].Everything.Everywhere.All.At.Once.2022.2160p.WEB-DL.DV.HEVC.Atmos.DDP5.1-OPT 14.75GB

版主小s 20天前 46

✔资源类型:BD-4K   ✔电影年份:2022   ✔电影地区:欧美   ✔电影分类:喜剧

◎译  名 瞬息全宇宙 / 妈的多重宇宙(台) / 奇异女侠玩救宇宙(港) / 天马行空(新加坡) / 瞬息各处所有 / 全部世界同时一切
◎片  名 Everything Everywhere All at Once
◎年  代 2022
◎产  地 美国
◎类  别 喜剧 / 奇幻 / 冒险
◎语  言 英语 / 汉语普通话 / 粤语
◎上映日期 2022-03-11(西南偏南电影节) / 2022-03-25(美国)
◎IMDb链接 https://www.imdb.com/title/tt6710474/
◎豆瓣评分 7.7/10 (275010人评价)
◎豆瓣链接 https://movie.douban.com/subject/30314848/
◎片  长 139分钟
◎导  演 丹·关 Dan Kwan (id:1356396)
       丹尼尔·施纳特 Daniel Scheinert (id:1356397)
◎编  剧 丹·关 Dan Kwan (id:1356396)
       丹尼尔·施纳特 Daniel Scheinert (id:1356397)
◎演  员 杨紫琼 Michelle Yeoh (id:1022664)
       斯蒂芬妮·许 Stephanie Hsu (id:1356993)
       关继威 Jonathan Ke Quan (id:1022565)
       吴汉章 James Hong (id:1031824)
       杰米·李·柯蒂斯 Jamie Lee Curtis (id:1041127)
       珍妮·斯蕾特 Jenny Slate (id:1230973)
       塔丽·梅德尔 Tallie Medel (id:1353816)
       岑勇康 Harry Shum Jr. (id:1044718)
       比夫·威夫 Biff Wiff (id:1469370)
       苏妮特·玛尼 Sunita Mani (id:1366880)
       阿隆·拉扎尔 Aaron Lazar (id:1343713)
       布莱恩·勒 Brian Le (id:1456759)
       安迪·黎 Andy Le (id:1456768)
       切尔西·戈德史密斯 Chelsey Goldsmith (id:1469371)
       克雷格·亨宁森 Craig Henningsen (id:1229199)
       安东尼·莫利纳利 Anthony Molinari (id:1045545)
       丹·布朗 Dan Brown (id:1181319)
       帕努瓦特·安东尼·纳纳肯帕诺姆 Panuvat Anthony Nanakornpanom (id:1309119)
       卡拉·玛丽·乔尔简 Cara Marie Chooljian (id:1469372)
       兰达尔·阿切尔 Randall Archer (id:1351135)
       埃夫卡·科瓦拉西尤斯 Efka Kvaraciejus (id:1331229)
       奥德丽·瓦西莱夫斯基 Audrey Wasilewski (id:1328955)
       布恩·平考 Boon Pin Koh (id:1377199)
       蒂莫西·尤里齐 Timothy Eulich (id:1356398)
       西协美智子 Michiko Nishiwaki (id:1041987)
       蒂莫西·斯科特·拉尔斯顿 Timothy Scott Ralston (id:1148643)
       D.Y. Sao D.Y. Sao (id:1239718)
       安东尼·罗素 Anthony Russo (id:1321812)
       乔·罗素 Joe Russo (id:1320870)
       丹尼尔·施纳特 Daniel Scheinert (id:1356397)
       丹·关 Dan Kwan (id:1356396)
       杨紫琼 Michelle Yeoh (id:1022664)
       萨拉·芬兰 Sarah Finn (id:1283741)
       迈克·拉罗卡 Mike Larocca (id:1452625)
       托德·马库拉思 Todd Makurath (id:1452633)
       萨拉·芬兰 Sarah Finn (id:1283741)

◎简  介
  55岁的美国华裔移民伊芙琳(杨紫琼 饰)家庭事业两崩溃。在老父亲生日大寿这天,除了要阻止女儿(许玮伦 饰)暴走出柜、替无用丈夫(关继威 饰)擦屁股,还得去税务局向古板大婶(杰米·李·柯蒂斯 饰)解释不太妙的税务问题。才踏进大楼电梯,软烂丈夫竟摇身一变演起黑客帝国,声称自己是另一个宇宙的版本,而秀莲也是千万宇宙里的其中一个。还来不及理解,邪恶势力已在多元宇宙中蔓延,世界即将毁灭,只有在这个宇宙里,“一无是处”的伊芙琳才能拯救世界……
  1. ##### MediaInfo ######
  2. General
  3. Unique ID                                : 259500721690463236432701357124863205854 (0xC33A05637DEE229DC4544D90436921DE)
  4. Complete name                            : Everything.Everywhere.All.At.Once.2022.2160p.WEB-DL.DV.HEVC.Atmos.DDP5.1-OPT.mkv
  5. Format                                   : Matroska
  6. Format version                           : Version 4
  7. File size                                : 14.7 GiB
  8. Duration                                 : 2 h 19 min
  9. Overall bit rate                         : 15.2 Mb/s
  10. Movie name                               : Everything Everywhere All At Once 2022
  11. Encoded date                             : UTC 2022-06-07 09:20:23
  12. Writing application                      : mkvmerge v61.0.0 ('So') 64-bit
  13. Writing library                          : libebml v1.4.2 + libmatroska v1.6.4
  14. Video
  15. ID                                       : 1
  16. Format                                   : HEVC
  17. Format/Info                              : High Efficiency Video Coding
  18. Format profile                           : Main 10@L5@High
  19. Codec ID                                 : V_MPEGH/ISO/HEVC
  20. Duration                                 : 2 h 19 min
  21. Bit rate                                 : 14.4 Mb/s
  22. Width                                    : 3 836 pixels
  23. Height                                   : 2 068 pixels
  24. Display aspect ratio                     : 1.85:1
  25. Frame rate mode                          : Constant
  26. Frame rate                               : 23.976 (24000/1001/53354) FPS
  27. Color space                              : YUV
  28. Chroma subsampling                       : 4:2:0
  29. Bit depth                                : 10 bits
  30. Bits/(Pixel*Frame)                       : 0.076
  31. Stream size                              : 14.0 GiB (95%)
  32. Default                                  : Yes
  33. Forced                                   : No
  34. Audio
  35. ID                                       : 2
  36. Format                                   : E-AC-3 JOC
  37. Format/Info                              : Enhanced AC-3 with Joint Object Coding
  38. Commercial name                          : Dolby Digital Plus with Dolby Atmos
  39. Codec ID                                 : A_EAC3
  40. Duration                                 : 2 h 19 min
  41. Bit rate mode                            : Constant
  42. Bit rate                                 : 768 kb/s
  43. Channel(s)                               : 6 channels
  44. Channel layout                           : L R C LFE Ls Rs
  45. Sampling rate                            : 48.0 kHz
  46. Frame rate                               : 31.250 FPS (1536 SPF)
  47. Compression mode                         : Lossy
  48. Stream size                              : 765 MiB (5%)
  49. Language                                 : English
  50. Service kind                             : Complete Main
  51. Default                                  : Yes
  52. Forced                                   : No
  53. Complexity index                         : 16
  54. Number of dynamic objects                : 15
  55. Bed channel count                        : 1 channel
  56. Bed channel configuration                : LFE
  57. Text #1
  58. ID                                       : 3
  59. Format                                   : UTF-8
  60. Codec ID                                 : S_TEXT/UTF8
  61. Codec ID/Info                            : UTF-8 Plain Text
  62. Duration                                 : 2 h 10 min
  63. Bit rate                                 : 42 b/s
  64. Count of elements                        : 1616
  65. Stream size                              : 40.7 KiB (0%)
  66. Language                                 : English
  67. Default                                  : Yes
  68. Forced                                   : No
  69. Text #2
  70. ID                                       : 4
  71. Format                                   : UTF-8
  72. Codec ID                                 : S_TEXT/UTF8
  73. Codec ID/Info                            : UTF-8 Plain Text
  74. Duration                                 : 2 h 17 min
  75. Bit rate                                 : 47 b/s
  76. Count of elements                        : 1722
  77. Stream size                              : 48.1 KiB (0%)
  78. Title                                    : Traditional
  79. Language                                 : Chinese
  80. Default                                  : No
  81. Forced                                   : No
  82. Text #3
  83. ID                                       : 5
  84. Format                                   : UTF-8
  85. Codec ID                                 : S_TEXT/UTF8
  86. Codec ID/Info                            : UTF-8 Plain Text
  87. Duration                                 : 2 h 17 min
  88. Bit rate                                 : 48 b/s
  89. Count of elements                        : 1721
  90. Stream size                              : 49.2 KiB (0%)
  91. Title                                    : 简体中字
  92. Language                                 : Chinese
  93. Default                                  : Yes
  94. Forced                                   : No
  95. Text #4
  96. ID                                       : 6
  97. Format                                   : UTF-8
  98. Codec ID                                 : S_TEXT/UTF8
  99. Codec ID/Info                            : UTF-8 Plain Text
  100. Duration                                 : 2 h 17 min
  101. Bit rate                                 : 48 b/s
  102. Count of elements                        : 1721
  103. Stream size                              : 49.2 KiB (0%)
  104. Title                                    : 繁体中字
  105. Language                                 : Chinese
  106. Default                                  : Yes
  107. Forced                                   : No
  108. Text #5
  109. ID                                       : 7
  110. Format                                   : ASS
  111. Codec ID                                 : S_TEXT/ASS
  112. Codec ID/Info                            : Advanced Sub Station Alpha
  113. Duration                                 : 2 h 17 min
  114. Bit rate                                 : 101 b/s
  115. Count of elements                        : 1721
  116. Compression mode                         : Lossless
  117. Stream size                              : 102 KiB (0%)
  118. Title                                    : 简体中字
  119. Language                                 : Chinese
  120. Default                                  : Yes
  121. Forced                                   : No
  122. Text #6
  123. ID                                       : 8
  124. Format                                   : ASS
  125. Codec ID                                 : S_TEXT/ASS
  126. Codec ID/Info                            : Advanced Sub Station Alpha
  127. Duration                                 : 2 h 17 min
  128. Bit rate                                 : 101 b/s
  129. Count of elements                        : 1721
  130. Compression mode                         : Lossless
  131. Stream size                              : 102 KiB (0%)
  132. Title                                    : 繁体中字
  133. Language                                 : Chinese
  134. Default                                  : Yes
  135. Forced                                   : No





此处一般会放置磁力链或种子下载链接,不过此链接需要注册会员才能看到,点击“立即注册”
磁力链下载【下载链接仅对注册会员开放,登陆后可见】
BT9527电影天堂 1、BT9527电影天堂提供的BT文件均来源于互联网抓取,只供网友学习交流、技术提升使用。
2、我们遵守BitTorrent点对点协议原则,任何版权问题请联系原资源发布商,我们不处理任何版权纠纷,谢谢!如有争议请联系邮箱:BT9527#hotmail.com(#换成@)
3、如果您发现某页面或地址有错误,请联系站长邮箱BT9527#hotmail.com(#换成@),我们会尽快处理。您的热心是对BT9527电影天堂最大的支持。
4、本站建议去正规影院观看电影以支持电影行业发展。
最新回复 (0)

你可以在 登录 or 注册 后,对此帖发表评论!

返回
发新帖