码头风云[中英字幕].On.the.Waterfront.1954.BluRay.1080p.x265.10bit-MiniHD 9.00GB

版主小s 3月前 113

✔资源类型:暂未分类   ✔电影年份:更 早   ✔电影地区:欧美   ✔电影分类:剧情

◎标  题 码头风云
◎译  名 岸上风云 / 在江边
◎片  名 On the Waterfront
◎年  代 1954
◎产  地 美国
◎类  别 剧情 / 爱情 / 犯罪
◎语  言 英语
◎上映日期 1954-06-22(日本) / 1954-08-06(美国)
◎IMDb评分 8.1/10 (149780人评价)
◎IMDb链接 https://www.imdb.com/title/tt0047296/
◎豆瓣评分 7.9/10 (12415人评价)
◎豆瓣链接 https://movie.douban.com/subject/1292521/
◎片  长 108 分钟
◎导  演 伊利亚·卡赞 Elia Kazan
◎编  剧 巴德·舒尔伯格 Budd Schulberg
◎演  员 马龙·白兰度 Marlon Brando
       卡尔·莫尔登 Karl Malden
       李·科布 Lee J. Cobb
       罗德·斯泰格尔 Rod Steiger
       爱娃·玛丽·森特 Eva Marie Saint
       利夫·埃里克森 Leif Erickson

◎标  签 美国 / 马龙•白兰度 / 经典 / 1954 / 剧情 / 美国电影 / 奥斯卡最佳影片 / MarlonBrando

◎简  介
  纽约港的码头上,以约翰尼为首的黑社会势力无情地压迫着码头工人们。曾经是拳击手的特里(马龙·白兰度 Marlon Brando 饰)来到码头为约翰尼工作。他的朋友乔伊因为向犯罪委员会揭发约翰尼等人的罪行,被其手下,也是特里的哥哥查理从楼顶上推下摔死。乔伊的妹妹伊迪(爱娃·玛丽·森特 Eva Marie Saint 饰)发誓要为哥哥复仇,与教区牧师巴里神父一起展开调查。知情人都不敢出面告发。特里也目睹了乔伊被害的经过,虽然同情伊迪的遭遇,想要帮她逃离黑社会的迫害,但他没有告发哥哥的罪行。在与伊迪的接触中,两人渐渐产生感情。当伊迪得知他是杀害哥哥的帮凶,她拒绝了他。之后哥哥也为了救特里而被约翰尼杀害。无数罪恶的事件让特里决心去揭发约翰尼的罪行。在码头上他被约翰尼的手下打成重伤,神父和伊迪赶来支持他,一直沉默的码头工人们也觉醒了,他们团结在一起,为了正义抗争...
  1. ##### MediaInfo ######
  2. General
  3. Unique ID                                : 237572815373120186157196916840739590831 (0xB2BADC230EECE7D79919E5CF6F2752AF)
  4. Complete name                            : On.the.Waterfront.1954.BluRay.1080p.x265.10bit-MiniHD.mkv
  5. Format                                   : Matroska
  6. Format version                           : Version 4
  7. File size                                : 8.99 GiB
  8. Duration                                 : 1 h 47 min
  9. Overall bit rate                         : 12.0 Mb/s
  10. Encoded date                             : UTC 2017-08-07 02:11:33
  11. Writing application                      : mkvmerge v11.0.0 ('Alive') 64bit
  12. Writing library                          : libebml v1.3.4 + libmatroska v1.4.5
  13. Video
  14. ID                                       : 1
  15. Format                                   : HEVC
  16. Format/Info                              : High Efficiency Video Coding
  17. Codec ID                                 : V_MPEGH/ISO/HEVC
  18. Duration                                 : 1 h 47 min
  19. Bit rate                                 : 11.1 Mb/s
  20. Width                                    : 1 800 pixels
  21. Height                                   : 1 080 pixels
  22. Display aspect ratio                     : 5:3
  23. Frame rate mode                          : Constant
  24. Frame rate                               : 23.976 (24000/1001/53354) FPS
  25. Bits/(Pixel*Frame)                       : 0.238
  26. Stream size                              : 8.33 GiB (93%)
  27. Default                                  : Yes
  28. Forced                                   : No
  29. Audio
  30. ID                                       : 2
  31. Format                                   : AC-3
  32. Format/Info                              : Audio Coding 3
  33. Commercial name                          : Dolby Digital
  34. Codec ID                                 : A_AC3
  35. Duration                                 : 1 h 47 min
  36. Bit rate mode                            : Constant
  37. Bit rate                                 : 640 kb/s
  38. Channel(s)                               : 6 channels
  39. Channel layout                           : L R C LFE Ls Rs
  40. Sampling rate                            : 48.0 kHz
  41. Frame rate                               : 31.250 FPS (1536 SPF)
  42. Compression mode                         : Lossy
  43. Stream size                              : 493 MiB (5%)
  44. Language                                 : English
  45. Service kind                             : Complete Main
  46. Default                                  : Yes
  47. Forced                                   : No
  48. Text #1
  49. ID                                       : 3
  50. Format                                   : PGS
  51. Muxing mode                              : zlib
  52. Codec ID                                 : S_HDMV/PGS
  53. Codec ID/Info                            : Picture based subtitle format used on BDs/HD-DVDs
  54. Language                                 : English
  55. Default                                  : Yes
  56. Forced                                   : No
  57. Text #2
  58. ID                                       : 4
  59. Format                                   : PGS
  60. Muxing mode                              : zlib
  61. Codec ID                                 : S_HDMV/PGS
  62. Codec ID/Info                            : Picture based subtitle format used on BDs/HD-DVDs
  63. Language                                 : English
  64. Default                                  : No
  65. Forced                                   : No
  66. Text #3
  67. ID                                       : 5
  68. Format                                   : PGS
  69. Muxing mode                              : zlib
  70. Codec ID                                 : S_HDMV/PGS
  71. Codec ID/Info                            : Picture based subtitle format used on BDs/HD-DVDs
  72. Language                                 : Chinese
  73. Default                                  : No
  74. Forced                                   : No
  75. Menu
  76. 00:00:00.000                             : en:Chapter 01
  77. 00:05:58.524                             : en:Chapter 02
  78. 00:13:22.092                             : en:Chapter 03
  79. 00:20:05.120                             : en:Chapter 04
  80. 00:26:05.564                             : en:Chapter 05
  81. 00:37:36.671                             : en:Chapter 06
  82. 00:43:07.418                             : en:Chapter 07
  83. 00:50:32.738                             : en:Chapter 08
  84. 00:58:57.742                             : en:Chapter 09
  85. 01:03:38.773                             : en:Chapter 10
  86. 01:10:26.513                             : en:Chapter 11
  87. 01:16:13.986                             : en:Chapter 12
  88. 01:22:08.214                             : en:Chapter 13
  89. 01:32:05.061                             : en:Chapter 14
  90. 01:38:11.719                             : en:Chapter 15
  91. 01:43:30.245                             : en:Chapter 16





此处一般会放置磁力链或种子下载链接,不过此链接需要注册会员才能看到,点击“立即注册”
磁力链下载【下载链接仅对注册会员开放,登陆后可见】
BT9527电影天堂 1、BT9527电影天堂提供的BT文件均来源于互联网抓取,只供网友学习交流、技术提升使用。
2、我们遵守BitTorrent点对点协议原则,任何版权问题请联系原资源发布商,我们不处理任何版权纠纷,谢谢!如有争议请联系邮箱:BT9527#hotmail.com(#换成@)
3、如果您发现某页面或地址有错误,请联系站长邮箱BT9527#hotmail.com(#换成@),我们会尽快处理。您的热心是对BT9527电影天堂最大的支持。
4、本站建议去正规影院观看电影以支持电影行业发展。
最新回复 (0)

你可以在 登录 or 注册 后,对此帖发表评论!

返回
发新帖